<?xml version="1.0" standalone="no"?>
<!DOCTYPE svg PUBLIC "-//W3C//DTD SVG 1.1//EN" "http://www.w3.org/Graphics/SVG/1.1/DTD/svg11.dtd" >
<svg xmlns="http://www.w3.org/2000/svg">
<metadata>
Copyright (c) 2010 by Fontsmith Ltd. All rights reserved.
</metadata>
<defs>
<font id="UniCreditWeb" horiz-adv-x="520" >
  <font-face 
    font-family="UniCredit Web"
    font-weight="400"
    font-stretch="normal"
    units-per-em="1000"
    panose-1="2 0 5 6 4 0 0 2 0 4"
    ascent="750"
    descent="-250"
    x-height="490"
    cap-height="647"
    bbox="-169.571 -260.4 1032 1041.24"
    underline-thickness="50"
    underline-position="-50"
    unicode-range="U+000D-FB02"
  />
<missing-glyph horiz-adv-x="535" 
d="M20 693h495v-693h-495v693zM436 644h-337l169 -253zM466 94v505l-169 -252zM436 50l-168 252l-169 -252h337zM70 94l168 253l-168 252v-505z" />
    <glyph glyph-name="fi" unicode="fi" horiz-adv-x="495" 
d="M413 8q0 -8 -9 -8h-48q-8 0 -8 8v425h-192v-421q0 -12 -11 -12h-42q-12 0 -12 12v421h-61q-10 0 -10 11v20q0 12 10 13l61 13v31q0 43 9 73.5t32 50.5q25 23 57.5 32t74.5 9q14 0 30 -1t31.5 -3t30 -5t24.5 -7q15 -6 12 -18l-5 -23q-3 -14 -17 -10q-20 6 -49.5 9.5
t-57.5 3.5q-60 0 -83.5 -24.5t-23.5 -85.5v-32h245q12 0 12 -11v-471z" />
    <glyph glyph-name="fl" unicode="fl" horiz-adv-x="535" 
d="M492 57q5 0 8.5 -1.5t3.5 -9.5v-34q0 -12 -10 -12h-38q-54 0 -77 23q-24 25 -24 92v499q-20 9 -44.5 13.5t-47.5 4.5q-60 0 -83.5 -24.5t-23.5 -85.5v-32h107q10 0 10 -10v-37q0 -10 -10 -10h-107v-421q0 -12 -11 -12h-42q-12 0 -12 12v421h-61q-10 0 -10 11v20
q0 12 10 13l61 13v31q0 43 9 73.5t32 50.5q25 23 57.5 32t77.5 9q23 0 48.5 -4t42.5 -10l50 5q12 0 12 -12v-534q0 -24 1 -39.5t8 -23.5q8 -11 36 -11h27z" />
    <glyph glyph-name=".notdef" horiz-adv-x="535" 
d="M20 693h495v-693h-495v693zM436 644h-337l169 -253zM466 94v505l-169 -252zM436 50l-168 252l-169 -252h337zM70 94l168 253l-168 252v-505z" />
    <glyph glyph-name=".null" horiz-adv-x="0" 
 />
    <glyph glyph-name=".null" horiz-adv-x="0" 
 />
    <glyph glyph-name="nonmarkingreturn" unicode="&#xd;" horiz-adv-x="235" 
 />
    <glyph glyph-name="space" unicode=" " horiz-adv-x="235" 
 />
    <glyph glyph-name="nonbreakingspace" unicode="&#xa0;" horiz-adv-x="235" 
 />
    <glyph glyph-name="A" unicode="A" horiz-adv-x="528" 
d="M282 647q19 0 26 -4.5t15 -23.5q14 -35 27 -74.5t26 -78.5q34 -106 67 -219t62 -228q4 -19 -13 -19h-39q-16 0 -20 16q-12 48 -24 94t-25 92h-241l-48 -186q-4 -16 -20 -16h-40q-17 0 -13 17q29 115 62 229t68 220q13 39 26.5 78.5t27.5 74.5q8 19 14.5 23.5t25.5 4.5h36
zM213 442q-13 -43 -26.5 -89t-26.5 -91h208l-53 180q-8 29 -20.5 67t-24.5 73h-12q-12 -35 -24.5 -73t-20.5 -67z" />
    <glyph glyph-name="B" unicode="B" horiz-adv-x="516" 
d="M224 656q100 0 154.5 -36t54.5 -118v-15q0 -57 -24.5 -91.5t-69.5 -48.5v-2q62 -9 98 -46t36 -103v-14q0 -50 -18 -84.5t-50.5 -56.5t-79 -31.5t-103.5 -9.5q-35 0 -66 1t-62 3q-12 1 -17.5 6t-5.5 19v586q0 14 3.5 19t16.5 8q28 6 62.5 10t70.5 4zM140 309v-237
q0 -13 12 -14q17 -2 33.5 -2h39.5q36 0 68 5t55.5 18.5t37.5 38t14 63.5v11q0 33 -9.5 55.5t-30.5 36t-54 19.5t-79 6h-87zM152 593q-12 -3 -12 -14v-213h70q36 0 63.5 5.5t47 19t29.5 37.5t10 60v10q0 57 -33 79.5t-102 22.5q-22 0 -40 -2t-33 -5z" />
    <glyph glyph-name="C" unicode="C" horiz-adv-x="504" 
d="M458 609q12 -7 5 -19l-17 -26q-7 -10 -20 -3q-32 19 -66 29t-71 10q-38 0 -66 -11.5t-48 -31.5q-30 -31 -39 -82t-9 -137v-28q0 -44 1.5 -77.5t6.5 -59.5t13.5 -45.5t22.5 -35.5q20 -22 50.5 -33.5t77.5 -11.5q36 0 69.5 7t65.5 19q19 7 23 -9l7 -22q4 -15 -13 -22
q-32 -13 -72 -21t-80 -8q-73 0 -117.5 16.5t-72.5 48.5q-32 38 -43.5 97t-11.5 144v53q0 94 17 157.5t63 101.5q58 47 152 47q53 0 94 -12t78 -35z" />
    <glyph glyph-name="D" unicode="D" horiz-adv-x="582" 
d="M95 0q-24 0 -24 25v600q0 12 4.5 18t18.5 8q15 1 27 2t24.5 2t28 1h37.5q81 0 141.5 -14t100.5 -50q38 -35 56.5 -90.5t18.5 -148.5v-50q0 -79 -16 -136.5t-50.5 -94.5t-89.5 -54.5t-133 -17.5h-144zM228 600h-41t-35 -2q-12 -1 -12 -15v-514q0 -13 12 -13h76q32 0 56 2
t43 7t34.5 13.5t30.5 20.5q32 27 47.5 75t15.5 137v32q0 79 -12.5 125t-39.5 76q-28 31 -71.5 43.5t-103.5 12.5z" />
    <glyph glyph-name="E" unicode="E" horiz-adv-x="471" 
d="M183 0q-31 0 -51.5 5t-34.5 17t-21.5 31.5t-9.5 48.5q-4 48 -5 96t-1 99v53q0 18 0.5 42.5t1 51.5t2 53.5t3.5 47.5q4 57 32 80q14 12 34.5 17t51.5 5h230q9 0 12 -3.5t3 -11.5v-26q0 -7 -3 -11t-12 -4h-225q-16 0 -25.5 -3.5t-15.5 -9.5q-10 -10 -12 -41q-2 -36 -4 -75
t-2 -100h237q9 0 12 -3.5t3 -11.5v-26q0 -7 -3 -11t-12 -4h-237q0 -68 0.5 -113.5t3.5 -85.5q2 -31 12 -41q11 -10 41 -10h227q9 0 12 -4t3 -11v-26q0 -8 -3 -11.5t-12 -3.5h-232z" />
    <glyph glyph-name="F" unicode="F" horiz-adv-x="448" 
d="M198 591q-35 0 -47 -12q-11 -11 -11 -45v-172h229q9 0 12 -3.5t3 -11.5v-26q0 -7 -3 -11t-12 -4h-229v-290q0 -16 -14 -16h-41q-14 0 -14 16v528q0 53 29 79q27 24 82 24h217q5 0 10 -1.5t5 -11.5v-30q0 -13 -15 -13h-201z" />
    <glyph glyph-name="G" unicode="G" horiz-adv-x="562" 
d="M480 632q15 -5 10 -19l-9 -27q-3 -9 -8 -10.5t-16 2.5q-34 11 -66.5 16.5t-77.5 5.5q-43 0 -78 -13.5t-59 -42.5q-26 -32 -37.5 -79t-11.5 -127v-28q0 -78 10 -127t36 -81q23 -29 56.5 -42t84.5 -13q35 0 61.5 2t49.5 7q10 2 10 13v216h-90q-15 0 -15 15v31q0 13 15 13
h145q14 0 14 -14v-291q0 -11 -4.5 -17.5t-16.5 -9.5q-42 -11 -84 -16t-91 -5q-70 0 -118.5 18t-78.5 55.5t-43.5 95.5t-13.5 137v53q0 150 62 228t199 78q47 0 85.5 -5.5t79.5 -18.5z" />
    <glyph glyph-name="H" unicode="H" horiz-adv-x="593" 
d="M522 17q0 -17 -16 -17h-38q-15 0 -15 17v287h-313v-287q0 -17 -16 -17h-36q-17 0 -17 17v613q0 17 16 17h37q16 0 16 -17v-268h313v268q0 17 16 17h37q16 0 16 -17v-613z" />
    <glyph glyph-name="I" unicode="I" horiz-adv-x="221" 
d="M128 647q17 0 17 -17v-613q0 -17 -17 -17h-35q-17 0 -17 17v613q0 17 16 17h36z" />
    <glyph glyph-name="J" unicode="J" horiz-adv-x="306" 
d="M230 196q0 -39 -4 -68t-14 -52q-15 -40 -50.5 -58t-86.5 -18h-43q-14 0 -14 13v35q0 13 12 13h42q36 0 54 12.5t26 34.5q7 20 8 41t1 53v428q0 17 16 17h36q17 0 17 -17v-434z" />
    <glyph glyph-name="K" unicode="K" horiz-adv-x="503" 
d="M140 17q0 -17 -16 -17h-37q-16 0 -16 17v613q0 17 16 17h37q16 0 16 -17v-268h66q17 0 28 15l173 256q10 14 26 14h40q10 0 13 -4.5t-2 -12.5l-188 -275q-3 -5 -5 -8t-2 -8t2 -8t4 -7l188 -307q5 -7 2 -12t-13 -5h-48q-12 0 -20 14l-165 277q-6 10 -14.5 11.5t-16.5 1.5
h-68v-287z" />
    <glyph glyph-name="L" unicode="L" horiz-adv-x="378" 
d="M140 90q0 -20 8 -27t31 -7h163q15 0 15 -13v-30q0 -13 -15 -13h-180q-48 0 -69.5 19t-21.5 61v550q0 17 16 17h36q17 0 17 -17v-540z" />
    <glyph glyph-name="M" unicode="M" horiz-adv-x="747" 
d="M658 617q11 -146 19.5 -298.5t14.5 -301.5q0 -17 -14 -17h-38q-16 0 -16 17q-5 149 -10.5 288t-13.5 271h-7q-18 -53 -38.5 -110.5t-41 -115.5t-40.5 -112.5t-39 -99.5q-9 -22 -20 -28.5t-28 -6.5h-26q-17 0 -27.5 6.5t-19.5 28.5q-19 45 -39 99.5t-40.5 112.5t-41 115.5
t-38.5 110.5h-7q-10 -134 -14.5 -272t-9.5 -287q0 -17 -16 -17h-38q-14 0 -14 17q6 150 13 301.5t21 298.5q2 17 9 23.5t26 6.5h39q20 0 28 -4.5t16 -27.5q19 -51 39.5 -108.5t41.5 -116.5t42 -116.5t41 -107.5h5q19 50 40.5 107.5t43 116.5t42 116.5t38.5 108.5
q8 23 16 27.5t28 4.5h39q19 0 26 -6.5t9 -23.5z" />
    <glyph glyph-name="N" unicode="N" horiz-adv-x="603" 
d="M142 580h-7v-563q0 -17 -14 -17h-36q-14 0 -14 17v600q0 18 7 24t26 6h49q21 0 29.5 -8t16.5 -23l262 -551h7v565q0 17 14 17h36q14 0 14 -17v-600q0 -18 -7 -24t-26 -6h-49q-21 0 -29.5 8t-16.5 23z" />
    <glyph glyph-name="O" unicode="O" horiz-adv-x="582" 
d="M127 310q0 -70 8 -126.5t37 -90.5q19 -22 47.5 -34t71.5 -12q47 0 77 13.5t48 38.5q25 35 32 90t7 121v27q0 63 -6 119.5t-33 92.5q-18 24 -48 37.5t-77 13.5q-45 0 -75 -13.5t-48 -37.5q-26 -35 -33.5 -89.5t-7.5 -122.5v-27zM528 297q0 -83 -13.5 -143.5t-47.5 -98.5
q-28 -32 -70.5 -48t-105.5 -16q-59 0 -100 14.5t-69 42.5q-38 38 -53 100t-15 149v52q0 84 14 145.5t49 99.5q28 31 70.5 46.5t103.5 15.5t103.5 -15.5t70.5 -46.5q35 -38 49 -99t14 -146v-52z" />
    <glyph glyph-name="P" unicode="P" horiz-adv-x="500" 
d="M140 17q0 -17 -16 -17h-37q-16 0 -16 17v606q0 12 4 16.5t14 6.5q28 5 64.5 7.5t74.5 2.5q64 0 109.5 -11t74 -34t41.5 -60.5t13 -89.5v-13q0 -106 -60.5 -153.5t-172.5 -47.5h-46t-47 1v-231zM160 597q-20 -3 -20 -24v-268q18 -2 41.5 -2h43.5q87 0 127.5 32.5
t40.5 114.5v13q0 72 -36.5 104.5t-124.5 32.5q-44 0 -72 -3z" />
    <glyph glyph-name="Q" unicode="Q" horiz-adv-x="582" 
d="M528 297q0 -83 -13.5 -143.5t-47.5 -98.5q-22 -25 -54.5 -41t-74.5 -21q21 -32 53.5 -61t78.5 -58q17 -11 1 -21l-27 -18q-8 -5 -13 -5.5t-15 5.5q-43 26 -79.5 65.5t-68.5 90.5q-52 3 -87 17.5t-59 39.5q-38 38 -53 100t-15 149v52q0 84 14 145.5t49 99.5
q28 31 70.5 46.5t103.5 15.5t103.5 -15.5t70.5 -46.5q35 -38 49 -99t14 -146v-52zM127 310q0 -70 8 -126.5t37 -90.5q19 -22 47.5 -34t71.5 -12q47 0 77 13.5t48 38.5q25 35 32 90t7 121v27q0 63 -6 119.5t-33 92.5q-18 24 -48 37.5t-77 13.5q-45 0 -75 -13.5t-48 -37.5
q-26 -35 -33.5 -89.5t-7.5 -122.5v-27z" />
    <glyph glyph-name="R" unicode="R" 
d="M71 624q0 18 18 21q29 5 62 8t75 3q112 0 171.5 -42.5t59.5 -135.5v-21q0 -65 -32 -108.5t-92 -59.5l164 -274q9 -15 -8 -15h-52q-11 0 -17 9l-155 268q-9 -1 -18 -1h-19h-46t-42 1v-260q0 -17 -16 -17h-36q-17 0 -17 17v607zM140 334q20 -1 45.5 -1.5t53.5 -0.5
q75 0 110 30t35 101v13q0 69 -37 96.5t-120 27.5q-22 0 -40 -1t-32 -3q-10 -2 -12.5 -5t-2.5 -13v-244z" />
    <glyph glyph-name="S" unicode="S" horiz-adv-x="465" 
d="M217 -9q-50 0 -90.5 7.5t-75.5 21.5q-13 5 -10 17l8 33q3 15 21 8q27 -12 65.5 -21.5t79.5 -9.5q72 0 106.5 32t34.5 90v11q0 27 -5 46t-17 32.5t-32.5 22.5t-51.5 17l-67 16q-72 17 -107 55t-35 107v15q0 81 52 123t140 42q43 0 78.5 -5t64.5 -14q11 -3 13 -8t0 -14
l-7 -24q-4 -15 -24 -9q-33 10 -60 14t-63 4q-124 0 -124 -110v-10q0 -27 7 -45t20.5 -30t33 -19.5t44.5 -13.5l63 -15q41 -10 69 -23.5t45.5 -33t25 -46.5t7.5 -64v-16q0 -93 -54 -138t-155 -45z" />
    <glyph glyph-name="T" unicode="T" horiz-adv-x="479" 
d="M219 0q-8 0 -11 3t-3 12v576h-170q-9 0 -12 4t-3 11v28q0 10 5 11.5t10 1.5h409q9 0 12 -3.5t3 -11.5v-26q0 -7 -3 -11t-12 -4h-170v-576q0 -9 -3 -12t-11 -3h-41z" />
    <glyph glyph-name="U" unicode="U" horiz-adv-x="584" 
d="M516 210q0 -112 -54 -166q-27 -26 -68 -39.5t-102 -13.5t-102 13.5t-68 39.5q-54 54 -54 166v420q0 17 16 17h37q16 0 16 -17v-416q0 -41 8 -72t27 -52q38 -43 120 -43t120 43q19 21 27 52t8 72v416q0 17 16 17h37q16 0 16 -17v-420z" />
    <glyph glyph-name="V" unicode="V" horiz-adv-x="528" 
d="M206 28q-49 141 -94 287.5t-89 312.5q-2 10 2.5 14.5t12.5 4.5h35q18 0 22 -16q35 -142 77.5 -286t86.5 -279h10q44 135 86.5 279t77.5 286q4 16 22 16h35q8 0 12.5 -4.5t2.5 -14.5q-44 -166 -89 -312.5t-93 -287.5q-7 -19 -14.5 -23.5t-26.5 -4.5h-36q-19 0 -26 4.5
t-14 23.5z" />
    <glyph glyph-name="W" unicode="W" horiz-adv-x="796" 
d="M457 587q26 -132 55 -263t63 -258h11q38 146 66 284.5t50 276.5q2 14 7 17t17 3h29q12 0 16 -4.5t2 -15.5q-26 -154 -57.5 -302t-73.5 -297q-5 -19 -13 -23.5t-27 -4.5h-41q-19 0 -27.5 4t-13.5 24q-35 129 -64.5 261.5t-52.5 259.5h-11q-23 -127 -52 -259.5t-64 -261.5
q-7 -19 -14.5 -23.5t-26.5 -4.5h-41q-19 0 -27 4.5t-13 23.5q-39 148 -72 297t-59 303q-2 11 2 15t16 4h29q12 0 17 -2.5t7 -16.5q23 -140 51 -279.5t65 -282.5h11q34 127 63 257.5t54 263.5q4 20 12.5 24t27.5 4h38q19 0 28 -4t13 -24z" />
    <glyph glyph-name="X" unicode="X" horiz-adv-x="533" 
d="M174 322q6 12 0 24l-135 283q-8 18 12 18h36q17 0 24 -13l118 -250q6 -13 11 -17.5t13 -4.5h26q9 0 14 4.5t11 17.5l117 248q5 10 9.5 12.5t15.5 2.5h36q12 0 13.5 -5.5t-3.5 -16.5l-132 -279q-6 -12 0 -24l147 -307q7 -15 -9 -15h-47q-13 0 -17 9l-128 276
q-5 12 -12 15.5t-20 3.5h-15q-14 0 -20.5 -3.5t-11.5 -15.5l-128 -276q-4 -9 -17 -9h-46q-17 0 -10 15z" />
    <glyph glyph-name="Y" unicode="Y" horiz-adv-x="475" 
d="M219 0q-8 0 -12 3t-4 12v205q-19 34 -36 66.5t-34 65.5q-32 63 -59.5 131t-50.5 152q-4 12 10 12h44q15 0 18 -10q39 -133 97 -260q20 -47 42 -86h7q11 20 21 41.5t20 44.5q28 63 53 128t45 132q4 10 18 10h44q14 0 10 -12q-23 -84 -51 -152t-59 -131
q-17 -33 -34.5 -65.5t-35.5 -66.5v-205q0 -9 -4 -12t-12 -3h-37z" />
    <glyph glyph-name="Z" unicode="Z" horiz-adv-x="485" 
d="M37 30q0 13 4 21.5t15 27.5l307 512h-296q-13 0 -13 14v29q0 13 13 13h361q17 0 17 -16v-14q0 -8 -1.5 -15t-4.5 -14.5t-8.5 -17.5t-13.5 -23l-294 -491h305q13 0 13 -13v-30q0 -13 -13 -13h-372q-19 0 -19 18v12z" />
    <glyph glyph-name="a" unicode="a" horiz-adv-x="464" 
d="M341 44h-2q-17 -26 -42.5 -39.5t-63.5 -13.5h-50q-32 0 -61 9.5t-46 26.5q-36 36 -36 94v30q0 46 20 78.5t58 47.5q17 7 44.5 10.5t75.5 3.5h30q17 0 34.5 -0.5t32.5 -2.5v57q0 58 -30.5 78t-90.5 20q-52 0 -103 -15q-11 -3 -17.5 -2t-8.5 10l-5 21q-2 9 -0.5 14.5
t11.5 8.5q25 8 60 13.5t68 5.5q96 0 138.5 -34.5t42.5 -112.5v-342q0 -10 -11 -10h-33q-13 0 -13 10zM335 233q-12 2 -27.5 2.5t-32.5 0.5h-56q-33 0 -53.5 -4.5t-34.5 -15.5q-25 -19 -25 -66v-21q0 -46 21 -65q19 -18 61 -18h41q50 0 78 26t28 78v83z" />
    <glyph glyph-name="b" unicode="b" horiz-adv-x="496" 
d="M253 47q36 0 62 9t41 30t22 54t7 89v34q0 57 -10 93t-30 56q-17 17 -39 24t-56 7q-35 0 -57.5 -8t-36.5 -22q-8 -8 -13.5 -17.5t-8.5 -21.5t-4 -27.5t-1 -36.5v-137q0 -33 5 -52.5t16 -35.5q15 -21 41 -29.5t62 -8.5zM129 451h2q17 22 49.5 35t76.5 13q101 0 147.5 -56
t46.5 -176v-46q0 -66 -13.5 -110t-39 -71t-62.5 -38t-84 -11q-54 0 -92 13.5t-59 38.5q-19 23 -28 52t-9 71v500q0 11 12 11h41q12 0 12 -11v-215z" />
    <glyph glyph-name="c" unicode="c" horiz-adv-x="412" 
d="M372 36q3 -10 0.5 -14.5t-17.5 -10.5q-20 -8 -52.5 -14t-61.5 -6q-92 0 -138 43q-34 31 -46 81t-12 117v33q0 70 15 115t46 74q22 20 56 32.5t79 12.5q42 0 81 -13.5t62 -30.5q8 -6 1 -16l-17 -28q-5 -9 -17 -2q-56 34 -110 34q-58 0 -90 -31q-14 -14 -22 -32.5t-12 -39
t-5 -42t-1 -42.5v-17q0 -58 7 -94.5t25 -59.5q16 -20 42.5 -29t58.5 -9q26 0 50 5t47 14q20 8 24 -7z" />
    <glyph glyph-name="d" unicode="d" horiz-adv-x="496" 
d="M432 164q0 -42 -9 -70t-28 -51q-21 -25 -59 -38.5t-92 -13.5q-51 0 -88.5 10.5t-62 36.5t-36.5 70t-12 112v47q0 120 46.5 176t147.5 56q44 0 76.5 -13t49.5 -35h2v215q0 11 12 11h41q12 0 12 -11v-502zM367 310q0 62 -30 97.5t-91 35.5q-36 0 -58.5 -8t-39.5 -26
q-19 -21 -28 -56t-9 -91v-34q0 -61 8.5 -95.5t27.5 -54.5q16 -17 38 -24t58 -7t62 8.5t41 29.5q11 16 16 35.5t5 52.5v137z" />
    <glyph glyph-name="e" unicode="e" horiz-adv-x="454" 
d="M406 246q0 -21 -8 -29.5t-29 -8.5h-258q1 -45 8.5 -76t23 -49.5t40 -27t59.5 -8.5q59 0 110 20q20 8 24 -7l7 -23q2 -8 0 -13.5t-22 -13.5q-51 -19 -119 -19q-56 0 -93.5 14t-60.5 42.5t-33 73t-10 104.5v40q0 118 41.5 176t146.5 58q86 0 129 -41q23 -22 33.5 -52
t10.5 -78v-82zM234 443q-32 0 -55 -8t-38 -28.5t-22.5 -55t-7.5 -86.5h215q8 0 11 2t3 13v38q0 36 -5 56.5t-18 36.5q-26 32 -83 32z" />
    <glyph glyph-name="f" unicode="f" horiz-adv-x="290" 
d="M103 0q-12 0 -12 12v421h-61q-10 0 -10 11v20q0 12 10 13l61 13v31q0 32 5 57t16 44q12 19 28.5 31.5t35 20t37 10t33.5 2.5q31 0 48.5 -2.5t31.5 -6.5q13 -4 12 -15l-5 -28q-3 -13 -17 -10q-12 2 -27.5 4t-32.5 2q-21 0 -39.5 -4.5t-30.5 -14.5q-17 -13 -23.5 -34.5
t-6.5 -56.5v-30h107q10 0 10 -10v-37q0 -10 -10 -10h-107v-421q0 -12 -11 -12h-42z" />
    <glyph glyph-name="g" unicode="g" horiz-adv-x="474" 
d="M371 140q-13 -13 -26 -20q86 -55 86 -140v-11q0 -42 -15 -71.5t-42 -48.5t-64 -27.5t-81 -8.5q-46 0 -94 11t-87 30q-10 5 -8 16l11 30q2 6 7 7.5t11 -1.5q77 -37 153 -37q71 0 105 21.5t34 81.5v8q0 42 -18 70t-56 48q-14 -3 -28 -4t-31 -1q-85 0 -133 37
q-52 45 -52 146v41q0 104 52 147q23 19 58 27t75 8h16t16 -1q11 32 37.5 52.5t74.5 20.5h24q14 0 14 -14v-34q0 -5 -1.5 -8t-10.5 -3h-30q-15 0 -28.5 -4.5t-21.5 -20.5q12 -5 23 -10t21 -13q52 -43 52 -147v-41q0 -46 -11.5 -79.5t-31.5 -56.5zM111 284q0 -48 11 -79
q12 -34 38 -47.5t68 -13.5q43 0 69.5 13.5t38.5 47.5q10 29 10 80v25q0 24 -2.5 44t-7.5 34q-12 35 -38.5 47.5t-69.5 12.5q-42 0 -68 -12.5t-38 -47.5q-11 -30 -11 -78v-26z" />
    <glyph glyph-name="h" unicode="h" horiz-adv-x="504" 
d="M132 447q8 10 15 16t20 14q20 11 44 16.5t50 5.5q57 0 96 -16.5t59 -50.5q14 -23 19 -55t5 -74v-289q0 -9 -4.5 -11.5t-13.5 -2.5h-29q-18 0 -18 14v293q0 46 -10 73.5t-36 43.5q-30 19 -81 19q-70 0 -98 -42q-9 -14 -13.5 -31t-4.5 -47v-308q0 -8 -3.5 -11.5t-14.5 -3.5
h-31q-16 0 -16 15v651q0 11 12 11h41q12 0 12 -11v-219z" />
    <glyph glyph-name="i" unicode="i" horiz-adv-x="229" 
d="M147 8q0 -8 -9 -8h-48q-8 0 -8 8v471q0 11 12 11h41q12 0 12 -11v-471zM161 616q0 -25 -12 -36.5t-32 -11.5h-4q-25 0 -35.5 11.5t-10.5 36.5v6q0 26 13 36.5t33 10.5h4q20 0 32 -10.5t12 -36.5v-6z" />
    <glyph glyph-name="j" unicode="j" horiz-adv-x="230" 
d="M148 6q0 -35 -5.5 -64t-19.5 -52q-18 -32 -49 -50t-86 -18h-36q-11 0 -11 12v33q0 12 11 12h34q61 0 82 46q15 33 15 86v468q0 11 12 11h41q12 0 12 -11v-473zM162 616q0 -25 -12 -36.5t-32 -11.5h-4q-25 0 -35.5 11.5t-10.5 36.5v6q0 26 13 36.5t33 10.5h4
q20 0 32 -10.5t12 -36.5v-6z" />
    <glyph glyph-name="k" unicode="k" horiz-adv-x="419" 
d="M132 290h50q8 0 13.5 2.5t12.5 13.5l116 173q7 11 19 11h43q6 0 9 -4t-2 -12l-142 -206q-5 -8 0 -16l147 -241q6 -11 -7 -11h-52q-8 0 -12 7l-126 213q-3 5 -7.5 8t-13.5 3h-48v-223q0 -8 -9 -8h-47q-9 0 -9 8v658q0 11 12 11h41q12 0 12 -11v-376z" />
    <glyph glyph-name="l" unicode="l" horiz-adv-x="252" 
d="M137 131q0 -24 1 -39.5t8 -23.5q8 -11 36 -11h27q5 0 8.5 -1.5t3.5 -9.5v-34q0 -12 -10 -12h-38q-54 0 -77 23q-24 25 -24 92v551q0 11 12 11h41q12 0 12 -11v-535z" />
    <glyph glyph-name="m" unicode="m" horiz-adv-x="804" 
d="M69 479q0 11 11 11h29q11 0 12 -11l5 -40h2q7 11 17.5 20.5t23.5 17.5q20 11 43.5 16.5t49.5 5.5q58 0 92.5 -17t56.5 -52h2q25 32 64 50.5t91 18.5q48 0 80 -12t52 -35q22 -25 31 -62.5t9 -86.5v-288q0 -9 -4 -12t-12 -3h-34q-8 0 -11.5 3t-3.5 12v292q0 37 -5.5 60.5
t-19.5 40.5q-29 35 -92 35q-81 0 -126 -60q3 -20 4.5 -38.5t1.5 -41.5v-288q0 -15 -15 -15h-34q-16 0 -16 15v292q0 40 -7 64t-23 41q-30 31 -94 31q-69 0 -97 -42q-9 -14 -13.5 -31t-4.5 -47v-308q0 -7 -3 -11t-12 -4h-35q-9 0 -12 3.5t-3 11.5v464z" />
    <glyph glyph-name="n" unicode="n" horiz-adv-x="506" 
d="M442 17q0 -11 -5.5 -14t-13.5 -3h-28q-12 0 -15 3t-3 14v292q0 46 -10 73.5t-36 43.5q-30 19 -81 19q-70 0 -98 -42q-9 -14 -13.5 -31t-4.5 -47v-310q0 -15 -18 -15h-31q-16 0 -16 15v464q0 11 10 11h30q11 0 12 -11l5 -40h2q7 11 17.5 20.5t23.5 17.5q20 11 44 16.5
t50 5.5q57 0 96 -16.5t59 -50.5q14 -23 19 -55t5 -74v-286v0z" />
    <glyph glyph-name="o" unicode="o" horiz-adv-x="475" 
d="M111 236q0 -31 2.5 -61t7.5 -49q13 -45 42 -62t74 -17t74.5 17t42.5 62q5 19 7.5 49t2.5 61v19q0 31 -2.5 61t-7.5 49q-13 45 -42.5 61.5t-74.5 16.5t-74 -16.5t-42 -61.5q-5 -19 -7.5 -49t-2.5 -61v-19zM430 225q0 -67 -12 -113t-40 -74q-48 -47 -141 -47q-92 0 -140 47
q-28 28 -40 74t-12 113v40q0 67 12 113.5t40 74.5q25 24 61 35t79 11q45 0 80.5 -11t60.5 -35q28 -28 40 -74.5t12 -113.5v-40z" />
    <glyph glyph-name="p" unicode="p" horiz-adv-x="499" 
d="M270 -9q-57 0 -87.5 14.5t-49.5 38.5h-2v-210q0 -11 -10 -11h-45q-10 0 -10 11v645q0 11 10 11h30q11 0 12 -11l6 -40h2q20 27 55.5 43.5t89.5 16.5q99 0 141 -54.5t42 -169.5v-52q0 -54 -9 -97t-30 -73t-56.5 -46t-88.5 -16zM262 443q-71 0 -101 -33t-30 -93v-141
q0 -65 35 -97t98 -32q35 0 57.5 8.5t39.5 28.5q17 21 22 54t5 90v38q0 52 -6 86t-25 57q-14 17 -37 25.5t-58 8.5z" />
    <glyph glyph-name="q" unicode="q" horiz-adv-x="499" 
d="M234 -9q-102 0 -145.5 53t-43.5 172v47q0 66 11.5 111.5t35.5 73t60 39.5t85 12q95 0 136 -60h2l5 39q1 12 15 12h24q8 0 11 -2.5t3 -10.5v-643q0 -11 -10 -11h-45q-10 0 -10 11v210h-2q-20 -25 -52 -39t-80 -14zM238 443q-33 0 -54 -6.5t-36 -23.5q-19 -20 -28 -58.5
t-9 -100.5v-33q0 -103 33 -140q16 -19 38.5 -26.5t59.5 -7.5q60 0 93 30t33 90v148q0 62 -33.5 95t-96.5 33z" />
    <glyph glyph-name="r" unicode="r" horiz-adv-x="303" 
d="M85 0q-16 0 -16 13v466q0 11 12 11h29q7 0 9 -3t3 -8l4 -52h2q14 25 41.5 44t74.5 19h26q13 0 13 -12v-34q0 -11 -13 -11h-27q-38 0 -58.5 -10.5t-32.5 -30.5q-10 -16 -14 -36t-4 -43v-300q0 -13 -17 -13h-32z" />
    <glyph glyph-name="s" unicode="s" horiz-adv-x="401" 
d="M191 -9q-38 0 -75.5 7t-60.5 17q-14 6 -12 17l8 29q4 16 19 10q29 -11 59 -17.5t62 -6.5q36 0 54.5 5t30.5 15q25 20 25 64v6q0 26 -5.5 41.5t-21.5 25.5q-11 7 -28 11.5t-42 9.5l-28 5q-51 9 -78 25q-28 16 -39.5 42.5t-11.5 61.5v10q0 67 40.5 98.5t119.5 31.5
q62 0 112 -14q18 -5 15 -18l-6 -26q-2 -9 -7 -12.5t-16 -0.5q-22 6 -48.5 10.5t-50.5 4.5q-32 0 -50.5 -5.5t-28.5 -14.5q-8 -8 -14 -21.5t-6 -30.5v-7q0 -16 3.5 -28t12.5 -21q10 -10 26.5 -16.5t51.5 -13.5l26 -5q37 -8 65.5 -18.5t43.5 -29.5q11 -15 18 -37t7 -51v-10
q0 -26 -7 -51t-21 -42q-40 -50 -142 -50z" />
    <glyph glyph-name="t" unicode="t" horiz-adv-x="316" 
d="M231 0q-78 0 -112 40q-33 39 -33 115v278h-61q-10 0 -10 11v20q0 12 10 13l61 13v113q0 12 12 12h42q11 0 11 -12v-113h117q10 0 10 -10v-37q0 -10 -10 -10h-117v-270q0 -27 3.5 -47.5t14.5 -34.5q19 -25 73 -25h36q5 0 8.5 -1.5t3.5 -9.5v-34q0 -11 -12 -11h-47z" />
    <glyph glyph-name="u" unicode="u" horiz-adv-x="489" 
d="M414 490q11 0 11 -13v-336q0 -76 -44 -114q-22 -19 -53 -27.5t-83 -8.5q-50 0 -82 9t-54 27q-45 38 -45 114v333q0 16 14 16h37q8 0 11 -4.5t3 -9.5v-327q0 -30 6 -47.5t20 -30.5q15 -14 36.5 -19t53.5 -5q34 0 55 6.5t37 21.5q13 12 18 28t5 46v328q0 13 12 13h42z" />
    <glyph glyph-name="v" unicode="v" horiz-adv-x="437" 
d="M200 0q-17 0 -26.5 8t-17.5 30q-39 105 -72.5 212.5t-60.5 225.5q-2 8 2 11t9 3h38q7 0 10.5 -2t5.5 -10q25 -101 55 -204t71 -223h9q41 120 71 223t55 204q2 8 5.5 10t10.5 2h38q5 0 9 -3t2 -11q-27 -118 -60.5 -225.5t-72.5 -212.5q-8 -22 -17.5 -30t-26.5 -8h-37z" />
    <glyph glyph-name="w" unicode="w" horiz-adv-x="667" 
d="M356 466q28 0 34 -28q21 -103 43 -198t48 -189h5q29 110 52 217t41 210q2 10 5.5 11t12.5 1h31q11 0 15.5 -2.5t2.5 -11.5q-22 -114 -48.5 -222.5t-53.5 -212.5q-5 -20 -14 -30.5t-28 -10.5h-34q-18 0 -28.5 8.5t-16.5 32.5q-25 94 -46 184t-40 181h-7q-19 -91 -40 -181
t-46 -184q-6 -24 -16.5 -32.5t-28.5 -8.5h-34q-19 0 -28 10.5t-14 30.5q-27 104 -53.5 212.5t-48.5 222.5q-2 9 2.5 11.5t15.5 2.5h31q9 0 12.5 -2t5.5 -10q18 -103 41 -210t52 -217h5q26 94 48 189t43 198q6 28 34 28h45z" />
    <glyph glyph-name="x" unicode="x" horiz-adv-x="433" 
d="M226 282q10 0 12.5 4.5t6.5 11.5l89 181q7 11 19 11h40q6 0 9 -4t-2 -12l-109 -213q-5 -11 0 -20l118 -230q6 -11 -7 -11h-52q-8 0 -12 7l-94 201q-6 16 -21 16h-15q-9 0 -12.5 -3.5t-7.5 -12.5l-93 -201q-4 -7 -12 -7h-52q-13 0 -7 11l116 230q5 9 0 20l-106 213
q-5 8 -2 12t9 4h40q13 0 19 -11l88 -181q5 -8 7 -12t10 -4h21z" />
    <glyph glyph-name="y" unicode="y" horiz-adv-x="428" 
d="M132 -153q41 80 73 160q-25 1 -40 15.5t-27 47.5q-15 42 -28.5 83t-27.5 89q-14 51 -29.5 108.5t-31.5 126.5q-3 13 11 13h45q9 0 11 -9q14 -66 27 -120t26 -102q12 -46 24 -84t26 -78q6 -18 13 -25t19 -7h4q38 103 62.5 205t46.5 212q2 8 11 8h46q12 0 10 -9
q-25 -119 -50 -212t-51.5 -170t-53.5 -144t-57 -133q-6 -13 -21 -7l-33 12q-13 5 -5 20z" />
    <glyph glyph-name="z" unicode="z" horiz-adv-x="395" 
d="M365 10q0 -10 -10 -10h-312q-10 0 -10 10v17q0 10 4 19t14 25l220 363h-221q-10 0 -10 10v36q0 10 10 10h296q10 0 10 -10v-14q0 -11 -4.5 -22t-21.5 -38l-215 -350h240q10 0 10 -10v-36z" />
    <glyph glyph-name="ampersand" unicode="&#x26;" horiz-adv-x="612" 
d="M516 243q0 -77 -20 -131l78 -76q12 -13 -1 -23l-18 -16q-8 -6 -12.5 -6t-12.5 8l-63 61q-56 -69 -191 -69h-35q-102 0 -150 43t-48 120v18q0 64 33 109.5t93 71.5q-81 75 -81 153v6q0 65 43 104.5t119 39.5q78 0 118.5 -40t40.5 -101v-11q0 -57 -26.5 -101.5t-95.5 -83.5
l155 -153q6 28 6 67v82q0 13 13 13h43q12 0 12 -13v-72zM274 47q53 0 89 14t56 46l-215 212q-48 -26 -68 -62.5t-20 -84.5v-11q0 -54 31.5 -84t100.5 -30h26zM159 504q0 -32 17.5 -62.5t59.5 -72.5l18 -18q25 17 41.5 33t26 34t13 39t3.5 47v7q0 46 -24.5 67.5t-62.5 21.5
q-92 0 -92 -91v-5z" />
    <glyph glyph-name="at" unicode="@" horiz-adv-x="812" 
d="M746 378q0 -58 -14 -102t-37.5 -74t-54.5 -45.5t-64 -15.5q-46 0 -71 15t-34 42h-2q-12 -21 -38 -34t-58 -13q-57 0 -84.5 29t-27.5 83q0 23 4 54t8 57q10 67 43.5 94t85.5 27q67 0 92 -41l5 17q2 7 5 8.5t10 1.5h23q15 0 14 -13l-25 -212q-5 -39 9 -55t47 -16
q19 0 39.5 11t37 34.5t27 58.5t10.5 83q0 61 -19.5 108.5t-54.5 80t-83.5 49.5t-106.5 17q-63 0 -118.5 -23t-97 -66.5t-65.5 -105t-24 -139.5q0 -143 73 -206.5t216 -63.5q22 0 47 3t50 8t48 11.5t42 14.5q8 3 11 0.5t5 -7.5l6 -22q3 -10 -8 -15q-51 -22 -108 -32t-103 -10
q-174 0 -261 80t-87 237q0 87 28 158t77.5 122t118.5 78.5t150 27.5q66 0 123 -18.5t99.5 -56t67 -93.5t24.5 -131zM410 448q-35 0 -52 -17t-25 -66q-4 -24 -7 -48t-3 -44q0 -15 2 -29t8.5 -24.5t18.5 -17t32 -6.5q30 0 54 18.5t29 60.5l12 94q5 40 -13 59.5t-56 19.5z" />
    <glyph glyph-name="exclam" unicode="!" horiz-adv-x="214" 
d="M112 91q20 0 31 -10t11 -29v-22q0 -20 -11 -29.5t-31 -9.5h-10q-19 0 -30.5 9.5t-11.5 29.5v22q0 19 11.5 29t30.5 10h10zM66 632q0 17 16 17h53q10 0 12 -6t2 -11l-10 -472q0 -17 -16 -17h-33q-14 0 -14 17z" />
    <glyph glyph-name="exclamdown" unicode="&#xa1;" horiz-adv-x="214" 
d="M112 398.976q20 0 31 9.99902q11 10 11 28.999v21.998q0 19.999 -11 29.498q-11 9.5 -31 9.5h-10q-19 0 -30.5 -9.5q-11.5 -9.49902 -11.5 -29.498v-21.998q0 -18.999 11.5 -28.999q11.5 -9.99902 30.5 -9.99902h10zM66 -141.991q0 -16.999 16 -16.999h53q10 0 12 6
q2 5.99902 2 10.999l-10 471.971q0 16.999 -16 16.999h-33q-14 0 -14 -16.999z" />
    <glyph glyph-name="question" unicode="?" horiz-adv-x="444" 
d="M404 482q0 -28 -6.5 -50t-20 -41.5t-34.5 -37.5t-49 -36l-56 -37q-13 -9 -21 -18.5t-13 -23t-7 -33t-2 -46.5q0 -16 -17 -16h-33q-14 0 -14 16q0 37 3.5 63t12.5 46t24 35t38 30l59 38q38 24 52 57q11 25 11 56v8q0 56 -33.5 82t-90.5 26q-36 0 -67.5 -6t-62.5 -17
q-18 -7 -23 7l-7 25q-2 8 0 12.5t13 8.5q33 11 72.5 18.5t81.5 7.5q98 0 144 -44t46 -114v-16zM168 91q20 0 31 -10t11 -29v-22q0 -20 -11 -29.5t-31 -9.5h-10q-19 0 -30.5 9.5t-11.5 29.5v22q0 19 11.5 29t30.5 10h10z" />
    <glyph glyph-name="questiondown" unicode="&#xbf;" horiz-adv-x="442" 
d="M37.998 8q0 27.998 6.49902 49.9961q6.5 21.999 19.999 41.498t34.498 37.4971q20.998 17.999 48.9971 35.998l55.9961 36.998q12.999 8.99902 20.999 18.499q7.99902 9.49902 12.999 22.998t7 32.998t2 46.4971q0 15.999 16.999 15.999h32.9971q14 0 14 -15.999
q0 -36.9971 -3.5 -62.9961q-3.5 -25.998 -12.499 -45.9971q-9 -19.999 -23.999 -34.998t-37.998 -29.998l-58.9961 -37.9971q-37.9971 -23.999 -51.9971 -56.9971q-10.999 -24.998 -10.999 -55.9961v-8q0 -55.9961 33.498 -81.9951q33.498 -25.998 90.4941 -25.998
q35.998 0 67.4961 5.99902q31.498 6 62.4961 16.999q17.999 7 22.999 -6.99902l6.99902 -24.999q2 -7.99902 0 -12.499t-12.999 -8.49902q-32.998 -11 -72.4951 -18.499q-39.498 -7.5 -81.4951 -7.5q-97.9941 0 -143.991 43.998q-45.9971 43.9971 -45.9971 113.992v16z
M273.983 398.976q-19.999 0 -30.998 9.99902q-10.999 10 -10.999 28.999v21.998q0 19.999 10.999 29.498q10.999 9.5 30.998 9.5h9.99902q18.999 0 30.498 -9.5q11.5 -9.49902 11.5 -29.498v-21.998q0 -18.999 -11.5 -28.999q-11.499 -9.99902 -30.498 -9.99902h-9.99902z
" />
    <glyph glyph-name="asterisk" unicode="*" horiz-adv-x="348" 
d="M192 730q11 0 12.5 -6t0.5 -14l-14 -112l94 51q8 4 14 3t9 -10l12 -35q5 -15 -9 -18l-111 -27l84 -81q8 -8 8.5 -16.5t-8.5 -13.5l-29 -18q-11 -7 -17 -4t-11 13l-53 100l-53 -100q-5 -10 -11 -13t-17 4l-29 18q-9 5 -8.5 13.5t8.5 16.5l84 81l-111 27q-14 3 -9 18l12 35
q3 9 9 10t14 -3l94 -51l-14 112q-1 8 0.5 14t12.5 6h36z" />
    <glyph glyph-name="period" unicode="." horiz-adv-x="192" 
d="M101 93q43 0 43 -39v-24q0 -39 -43 -39h-10q-20 0 -31.5 9.5t-11.5 29.5v24q0 19 11.5 29t31.5 10h10z" />
    <glyph glyph-name="comma" unicode="," horiz-adv-x="198" 
d="M110 93q22 0 34.5 -11.5t12.5 -39.5v-19q0 -17 -3.5 -35.5t-9.5 -36.5q-16 -43 -42 -75q-6 -8 -11 -8t-10 3l-18 11q-11 6 -1 19q5 8 10 16.5t10 16.5q10 18 14 34q4 13 -5 18l-18 9q-11 6 -15 15t-4 26v19q0 38 41 38h15z" />
    <glyph glyph-name="colon" unicode=":" horiz-adv-x="232" 
d="M121 474q43 0 43 -39v-24q0 -39 -43 -39h-10q-20 0 -31.5 9.5t-11.5 29.5v24q0 19 11.5 29t31.5 10h10zM121 93q43 0 43 -39v-24q0 -39 -43 -39h-10q-20 0 -31.5 9.5t-11.5 29.5v24q0 19 11.5 29t31.5 10h10z" />
    <glyph glyph-name="semicolon" unicode=";" horiz-adv-x="232" 
d="M121 474q43 0 43 -39v-24q0 -39 -43 -39h-10q-20 0 -31.5 9.5t-11.5 29.5v24q0 19 11.5 29t31.5 10h10zM123 93q22 0 34.5 -11.5t12.5 -39.5v-19q0 -17 -3.5 -35.5t-9.5 -36.5q-16 -43 -42 -75q-6 -8 -11 -8t-10 3l-18 11q-11 6 -1 19q5 8 10 16.5t10 16.5q10 18 14 34
q4 13 -5 18l-18 9q-11 6 -15 15t-4 26v19q0 38 41 38h15z" />
    <glyph glyph-name="ellipsis" unicode="&#x2026;" horiz-adv-x="576" 
d="M101 93q43 0 43 -39v-24q0 -39 -43 -39h-10q-20 0 -31.5 9.5t-11.5 29.5v24q0 19 11.5 29t31.5 10h10zM293 93q43 0 43 -39v-24q0 -39 -43 -39h-10q-20 0 -31.5 9.5t-11.5 29.5v24q0 19 11.5 29t31.5 10h10zM485 93q43 0 43 -39v-24q0 -39 -43 -39h-10q-20 0 -31.5 9.5
t-11.5 29.5v24q0 19 11.5 29t31.5 10h10z" />
    <glyph glyph-name="periodcentered" unicode="&#xb7;" horiz-adv-x="192" 
d="M101 343q43 0 43 -39v-24q0 -39 -43 -39h-10q-20 0 -31.5 9.5t-11.5 29.5v24q0 19 11.5 29t31.5 10h10z" />
    <glyph glyph-name="bullet" unicode="&#x2022;" horiz-adv-x="361" 
d="M61 261q0 25 9 47t25 38t38 25.5t47 9.5t47 -9.5t38 -25.5t25.5 -38t9.5 -47t-9.5 -47t-25.5 -38t-38 -25t-47 -9t-47 9t-38 25t-25 38t-9 47z" />
    <glyph glyph-name="slash" unicode="/" horiz-adv-x="336" 
d="M100 -11q-3 -9 -6.5 -11.5t-11.5 -2.5h-36q-15 0 -11 14l211 686q3 9 6.5 11.5t11.5 2.5h36q15 0 11 -14z" />
    <glyph glyph-name="parenleft" unicode="(" horiz-adv-x="285" 
d="M208 683q11 14 26 7l24 -12q9 -5 8.5 -9.5t-3.5 -9.5q-68 -91 -95.5 -183t-27.5 -190q0 -51 6 -98t20 -92.5t37.5 -90.5t58.5 -92q5 -8 3 -12t-10 -8l-23 -12q-8 -4 -12.5 -3t-10.5 9q-72 93 -106.5 192t-34.5 205q0 52 7 101.5t23.5 98t43.5 97.5t66 102z" />
    <glyph glyph-name="brokenbar" unicode="&#xa6;" horiz-adv-x="205" 
d="M134 -5q0 -17 -14 -17h-35q-14 0 -14 17v229q0 17 16 17h31q16 0 16 -17v-229zM71 673q0 17 14 17h35q14 0 14 -17v-229q0 -17 -16 -17h-31q-16 0 -16 17v229z" />
    <glyph glyph-name="parenright" unicode=")" horiz-adv-x="284" 
d="M76 -113q-11 -14 -26 -7l-24 12q-9 5 -8.5 9.5t3.5 9.5q68 91 95.5 183t27.5 190q0 51 -6 98t-20 92.5t-37.5 90.5t-58.5 92q-5 8 -3 12t10 8l23 12q8 4 12.5 3t10.5 -9q72 -93 106.5 -192t34.5 -205q0 -53 -7 -102t-23.5 -97.5t-43.5 -98t-66 -101.5z" />
    <glyph glyph-name="bracketleft" unicode="[" horiz-adv-x="267" 
d="M234 682q15 0 15 -15v-31q0 -13 -15 -13h-101v-656h101q8 0 11.5 -3t3.5 -12v-31q0 -13 -15 -13h-148q-15 0 -15 15v745q0 14 15 14h148z" />
    <glyph glyph-name="backslash" unicode="\" horiz-adv-x="358" 
d="M246.985 -11q2.99902 -9 6.49902 -11.5t11.499 -2.5h35.998q14.999 0 10.999 14l-210.986 686q-3 9 -6.5 11.5t-11.499 2.5h-35.998q-14.999 0 -10.999 -14z" />
    <glyph glyph-name="bracketright" unicode="]" horiz-adv-x="267" 
d="M33 -92q-9 0 -12 3.5t-3 10.5v31q0 10 5 12t10 2h101v656h-101q-9 0 -12 3.5t-3 10.5v31q0 10 5 12t10 2h150q13 0 13 -15v-745q0 -6 -3 -10t-12 -4h-148z" />
    <glyph glyph-name="braceleft" unicode="{" horiz-adv-x="301" 
d="M143 168q0 23 -5 39t-14.5 27.5t-23.5 19t-33 14.5q-8 3 -9.5 6t-1.5 10v26q0 14 11 17q38 11 57 30t19 62v149q1 60 23.5 93t68.5 33h42q13 0 13 -14v-33q0 -12 -11 -12h-32q-25 0 -33 -18t-9 -65v-125q0 -54 -18.5 -83t-60.5 -45v-3q21 -9 36 -20.5t24.5 -26.5t14 -36
t4.5 -50v-128q1 -47 9 -65t33 -18h32q11 0 11 -13v-33q0 -8 -2 -10.5t-10 -2.5h-43q-46 0 -68.5 33t-23.5 93v149z" />
    <glyph glyph-name="bar" unicode="|" horiz-adv-x="205" 
d="M71 673q0 17 16 17h30q17 0 17 -17v-678q0 -17 -16 -17h-33q-14 0 -14 17v678z" />
    <glyph glyph-name="braceright" unicode="}" horiz-adv-x="301" 
d="M158 19q0 -60 -23 -93t-69 -33h-43q-8 0 -10 2.5t-2 10.5v33q0 13 11 13h32q25 0 33.5 17.5t8.5 65.5v128q0 58 18.5 86t60.5 47v3q-42 16 -60.5 45t-18.5 83v125q0 48 -8.5 65.5t-33.5 17.5h-32q-11 0 -11 12v33q0 14 13 14h42q46 0 69 -33t23 -93v-149q0 -43 19 -62
t57 -30q11 -3 11 -17v-26q0 -7 -1.5 -10t-9.5 -6q-19 -7 -33 -14.5t-23.5 -19t-14.5 -27.5t-5 -39v-149z" />
    <glyph glyph-name="hyphen" unicode="-" horiz-adv-x="293" 
d="M243 294q9 0 12 -4t3 -11v-39q0 -10 -5 -11.5t-10 -1.5h-193q-9 0 -12 3.5t-3 11.5v37q0 7 3 11t12 4h193z" />
    <glyph glyph-name="uni00AD" unicode="&#xad;" horiz-adv-x="293" 
d="M243 294q9 0 12 -4t3 -11v-39q0 -10 -5 -11.5t-10 -1.5h-193q-9 0 -12 3.5t-3 11.5v37q0 7 3 11t12 4h193z" />
    <glyph glyph-name="endash" unicode="&#x2013;" horiz-adv-x="500" 
d="M485 294q9 0 12 -4t3 -11v-39q0 -10 -5 -11.5t-10 -1.5h-470q-9 0 -12 3.5t-3 11.5v37q0 7 3 11t12 4h470z" />
    <glyph glyph-name="emdash" unicode="&#x2014;" horiz-adv-x="1000" 
d="M985 294q9 0 12 -4t3 -11v-39q0 -10 -5 -11.5t-10 -1.5h-970q-9 0 -12 3.5t-3 11.5v37q0 7 3 11t12 4h970z" />
    <glyph glyph-name="underscore" unicode="_" horiz-adv-x="499" 
d="M455 -38q9 0 12 -4t3 -11v-20q0 -10 -5 -11.5t-10 -1.5h-411q-9 0 -12 3.5t-3 11.5v18q0 7 3 11t12 4h411z" />
    <glyph glyph-name="dagger" unicode="&#x2020;" horiz-adv-x="337" 
d="M198 17q0 -17 -14 -17h-31q-14 0 -14 17l-5 400l-112 -2q-9 0 -12 3.5t-3 11.5v37q0 7 3 11t12 4l111 -3l-2 175q0 17 16 17h44q10 0 12 -6t2 -11l-2 -175l112 3q9 0 12 -4t3 -11v-39q0 -10 -5 -11.5t-10 -1.5l-113 2z" />
    <glyph glyph-name="daggerdbl" unicode="&#x2021;" horiz-adv-x="339" 
d="M136 251l-101 -2q-9 0 -12 3.5t-3 11.5v37q0 7 3 11t12 4l100 -2l-1 103l-112 -2q-9 0 -12 3.5t-3 11.5v37q0 7 3 11t12 4l111 -3l-2 175q0 17 16 17h44q10 0 12 -6t2 -11l-2 -175l112 3q9 0 12 -4t3 -11v-39q0 -10 -5 -11.5t-10 -1.5l-113 2l-1 -104l101 3q9 0 12 -4
t3 -11v-39q0 -10 -5 -11.5t-10 -1.5l-102 2l-2 -234q0 -17 -14 -17h-31q-14 0 -14 17z" />
    <glyph glyph-name="section" unicode="&#xa7;" horiz-adv-x="433" 
d="M371 330q0 -30 -15.5 -54.5t-48.5 -41.5q63 -29 63 -106v-9q0 -61 -38 -93q-42 -35 -131 -35q-35 0 -70 6.5t-57 15.5q-14 6 -11 16l7 32q4 16 18 10q28 -11 56 -17t57 -6q33 0 52.5 4t32.5 15q21 16 21 51v6q0 32 -18.5 47t-58.5 24l-55 12q-60 13 -86 40.5t-26 78.5v9
q0 30 16 53.5t46 37.5q-33 15 -47 40t-14 64v9q0 34 13.5 57t36.5 37q22 13 48 18t59 5q30 0 56 -3.5t49 -9.5q17 -5 14 -17l-7 -30q-4 -14 -20 -9q-23 7 -45.5 11t-45.5 4q-17 0 -35.5 -2t-32.5 -10q-27 -16 -27 -54v-6q0 -29 17.5 -42.5t54.5 -21.5l62 -13
q57 -12 83.5 -37t26.5 -77v-9zM126 331q0 -29 13.5 -44.5t54.5 -23.5l60 -13q28 12 40 32.5t12 43.5v6q0 27 -14 42t-58 24l-50 10q-31 -8 -44.5 -26.5t-13.5 -44.5v-6z" />
    <glyph glyph-name="paragraph" unicode="&#xb6;" horiz-adv-x="583" 
d="M414 -117q-10 0 -14 2.5t-4 13.5v731h-104v-731q0 -11 -4 -13.5t-14 -2.5h-33q-10 0 -14 2.5t-4 13.5v429q-38 0 -70 12.5t-55.5 36t-37 57t-13.5 74.5q0 37 13 70t37 58t59 39t79 14h286q9 0 12 -3.5t3 -11.5v-29q0 -7 -3 -11t-12 -4h-63v-731q0 -11 -4 -13.5t-14 -2.5
h-26z" />
    <glyph glyph-name="registered" unicode="&#xae;" horiz-adv-x="805" 
d="M394 310h-5h-26.5t-25.5 1v-154q0 -10 -9 -10h-42q-9 0 -9 10v380q0 15 17 18q22 3 42.5 4t49.5 1t56.5 -5.5t48.5 -19t33.5 -36t12.5 -57.5v-11q0 -30 -9.5 -52.5t-25.5 -36.5q-20 -18 -48 -25l85 -158q2 -5 0.5 -8.5t-8.5 -3.5h-44q-9 0 -14 10zM348 507
q-11 -1 -11 -14v-129q11 -2 23.5 -2.5t23.5 -0.5q28 0 44.5 4t27.5 15q10 9 13.5 22.5t3.5 30.5v8q0 35 -19.5 51.5t-64.5 16.5h-20.5t-20.5 -2zM402 49q67 0 121.5 21t93 59.5t59.5 94t21 124.5t-21 124.5t-59.5 94t-93 59.5t-121.5 21t-121.5 -21t-93 -59.5t-59.5 -94
t-21 -124.5t21 -124.5t59.5 -94t93 -59.5t121.5 -21zM402 -14q-80 0 -146.5 25.5t-114.5 72.5t-74.5 114t-26.5 150t26.5 150t74.5 114t114.5 72.5t146.5 25.5t146.5 -25.5t114.5 -72.5t74.5 -114t26.5 -150t-26.5 -150t-74.5 -114t-114.5 -72.5t-146.5 -25.5z" />
    <glyph glyph-name="copyright" unicode="&#xa9;" horiz-adv-x="805" 
d="M514 181q2 -7 0 -10.5t-13 -8.5q-26 -11 -48 -15t-45 -4q-42 0 -68.5 9t-44.5 26q-27 24 -38.5 63.5t-11.5 92.5v26q0 44 9 80.5t30 62.5q19 23 49 36t75 13q31 0 59.5 -7.5t52.5 -24.5q11 -7 4 -17l-16 -25q-7 -12 -17 -5q-18 12 -38.5 19t-44.5 7q-25 0 -43 -6t-30 -21
q-26 -32 -26 -119v-13q0 -23 1.5 -40t4.5 -30t8 -22.5t11 -18.5q23 -32 76 -32q38 0 78 16q14 6 18 -5zM402 49q67 0 121.5 21t93 59.5t59.5 94t21 124.5t-21 124.5t-59.5 94t-93 59.5t-121.5 21t-121.5 -21t-93 -59.5t-59.5 -94t-21 -124.5t21 -124.5t59.5 -94t93 -59.5
t121.5 -21zM402 -14q-80 0 -146.5 25.5t-114.5 72.5t-74.5 114t-26.5 150t26.5 150t74.5 114t114.5 72.5t146.5 25.5t146.5 -25.5t114.5 -72.5t74.5 -114t26.5 -150t-26.5 -150t-74.5 -114t-114.5 -72.5t-146.5 -25.5z" />
    <glyph glyph-name="trademark" unicode="&#x2122;" horiz-adv-x="685" 
d="M40 601q-8 0 -8 7v34q0 5 3 6t5 1h211q7 0 7 -8v-33q0 -7 -7 -7h-79v-246q0 -8 -8 -8h-39q-8 0 -8 8v246h-77zM465 434q9 26 16.5 48.5t14.5 44.5t14.5 46t16.5 53q5 14 10.5 18.5t16.5 4.5h45q22 0 23 -23q3 -38 5 -70.5t4 -64.5t3 -65t3 -71q0 -8 -7 -8h-38q-8 0 -8 8
q-2 39 -3 70t-2.5 59t-3 55t-3.5 58h-3q-18 -57 -32.5 -103t-33.5 -98q-4 -11 -8.5 -13t-14.5 -2h-35q-10 0 -14.5 2t-8.5 13q-19 52 -33.5 98t-32.5 103h-3q-2 -31 -3.5 -58t-3 -55t-3 -59t-2.5 -70q0 -8 -8 -8h-38q-7 0 -7 8q1 38 2.5 71t3.5 65t4 64.5t5 70.5q1 23 23 23
h45q11 0 16.5 -4.5t10.5 -18.5q9 -29 16.5 -53t14.5 -46t14.5 -44.5t16.5 -48.5h5z" />
    <glyph glyph-name="quotedblleft" unicode="&#x201c;" horiz-adv-x="376" 
d="M100.994 461.972q-21.999 0 -34.498 11.499q-12.499 11.5 -12.499 39.498v18.999q0 16.999 3.49902 35.498q3.5 18.498 9.5 36.4971q15.999 42.998 41.9971 74.9961q6 7.99902 10.999 7.99902q5 0 10 -3l17.999 -10.999q10.999 -6 1 -18.999q-5 -7.99902 -10 -16.499
q-4.99902 -8.49902 -9.99902 -16.499q-9.99902 -17.999 -13.999 -33.998q-4 -12.999 4.99902 -17.999l17.999 -8.99902q11 -6 14.999 -14.999q4 -9 4 -25.998v-18.999q0 -37.998 -40.9971 -37.998h-14.999zM257.984 461.972q-21.999 0 -34.498 11.499
q-12.499 11.5 -12.499 39.498v18.999q0 16.999 3.5 35.498q3.49902 18.498 9.49902 36.4971q15.999 42.998 41.9971 74.9961q6 7.99902 11 7.99902q4.99902 0 9.99902 -3l17.999 -10.999q10.999 -6 1 -18.999q-5 -7.99902 -9.99902 -16.499q-5 -8.49902 -10 -16.499
q-9.99902 -17.999 -13.999 -33.998q-4 -12.999 5 -17.999l17.999 -8.99902q10.999 -6 14.999 -14.999q3.99902 -9 3.99902 -25.998v-18.999q0 -37.998 -40.9971 -37.998h-14.999z" />
    <glyph glyph-name="quotedblright" unicode="&#x201d;" horiz-adv-x="376" 
d="M118 687q22 0 34.5 -11.5t12.5 -39.5v-19q0 -17 -3.5 -35.5t-9.5 -36.5q-16 -43 -42 -75q-6 -8 -11 -8t-10 3l-18 11q-11 6 -1 19q5 8 10 16.5t10 16.5q10 18 14 34q4 13 -5 18l-18 9q-11 6 -15 15t-4 26v19q0 38 41 38h15zM275 687q22 0 34.5 -11.5t12.5 -39.5v-19
q0 -17 -3.5 -35.5t-9.5 -36.5q-16 -43 -42 -75q-6 -8 -11 -8t-10 3l-18 11q-11 6 -1 19q5 8 10 16.5t10 16.5q10 18 14 34q4 13 -5 18l-18 9q-11 6 -15 15t-4 26v19q0 38 41 38h15z" />
    <glyph glyph-name="quoteleft" unicode="&#x2018;" horiz-adv-x="219" 
d="M109.993 461.972q-21.999 0 -34.498 11.499q-12.499 11.5 -12.499 39.498v18.999q0 16.999 3.5 35.498q3.5 18.498 9.49902 36.4971q15.999 42.998 41.998 74.9961q5.99902 7.99902 10.999 7.99902t9.99902 -3l17.999 -10.999q11 -6 1 -18.999
q-5 -7.99902 -9.99902 -16.499q-5 -8.49902 -10 -16.499q-9.99902 -17.999 -13.999 -33.998q-4 -12.999 5 -17.999l17.999 -8.99902q10.999 -6 14.999 -14.999q4 -9 4 -25.998v-18.999q0 -37.998 -40.998 -37.998h-14.999z" />
    <glyph glyph-name="quoteright" unicode="&#x2019;" horiz-adv-x="219" 
d="M109 687q22 0 34.5 -11.5t12.5 -39.5v-19q0 -17 -3.5 -35.5t-9.5 -36.5q-16 -43 -42 -75q-6 -8 -11 -8t-10 3l-18 11q-11 6 -1 19q5 8 10 16.5t10 16.5q10 18 14 34q4 13 -5 18l-18 9q-11 6 -15 15t-4 26v19q0 38 41 38h15z" />
    <glyph glyph-name="guillemotleft" unicode="&#xab;" horiz-adv-x="484" 
d="M427 129q15 -15 3 -25l-19 -18q-11 -10 -28 5l-137 114q-9 8 -9 23v8q0 15 9 23l137 114q17 15 28 5l19 -18q12 -10 -3 -25l-111 -103zM228 129q15 -15 3 -25l-19 -18q-11 -10 -28 5l-137 114q-9 8 -9 23v8q0 15 9 23l137 114q17 15 28 5l19 -18q12 -10 -3 -25l-111 -103
z" />
    <glyph glyph-name="guillemotright" unicode="&#xbb;" horiz-adv-x="484" 
d="M275.983 129q-14.999 -15 -3 -25l18.999 -18q10.999 -10 27.998 5l136.991 114q9 8 9 23v8q0 15 -9 23l-136.991 114q-16.999 15 -27.998 5l-18.999 -18q-11.999 -10 3 -25l110.993 -103zM76.9951 129q-14.999 -15 -3 -25l18.999 -18q11 -10 27.998 5l136.992 114
q8.99902 8 8.99902 23v8q0 15 -8.99902 23l-136.992 114q-16.998 15 -27.998 5l-18.999 -18q-11.999 -10 3 -25l110.993 -103z" />
    <glyph glyph-name="guilsinglleft" unicode="&#x2039;" horiz-adv-x="285" 
d="M228 129q15 -15 3 -25l-19 -18q-11 -10 -28 5l-137 114q-9 8 -9 23v8q0 15 9 23l137 114q17 15 28 5l19 -18q12 -10 -3 -25l-111 -103z" />
    <glyph glyph-name="guilsinglright" unicode="&#x203a;" horiz-adv-x="285" 
d="M168 232l-111 103q-15 15 -3 25l19 18q11 10 28 -5l137 -114q9 -8 9 -23v-8q0 -15 -9 -23l-137 -114q-17 -15 -28 -5l-19 18q-12 10 3 25z" />
    <glyph glyph-name="quotesinglbase" unicode="&#x201a;" horiz-adv-x="219" 
d="M110 93q22 0 34.5 -11.5t12.5 -39.5v-19q0 -17 -3.5 -35.5t-9.5 -36.5q-16 -43 -42 -75q-6 -8 -11 -8t-10 3l-18 11q-11 6 -1 19q5 8 10 16.5t10 16.5q10 18 14 34q4 13 -5 18l-18 9q-11 6 -15 15t-4 26v19q0 38 41 38h15z" />
    <glyph glyph-name="quotedblbase" unicode="&#x201e;" horiz-adv-x="376" 
d="M110 93q22 0 34.5 -11.5t12.5 -39.5v-19q0 -17 -3.5 -35.5t-9.5 -36.5q-16 -43 -42 -75q-6 -8 -11 -8t-10 3l-18 11q-11 6 -1 19q5 8 10 16.5t10 16.5q10 18 14 34q4 13 -5 18l-18 9q-11 6 -15 15t-4 26v19q0 38 41 38h15zM267 93q22 0 34.5 -11.5t12.5 -39.5v-19
q0 -17 -3.5 -35.5t-9.5 -36.5q-16 -43 -42 -75q-6 -8 -11 -8t-10 3l-18 11q-11 6 -1 19q5 8 10 16.5t10 16.5q10 18 14 34q4 13 -5 18l-18 9q-11 6 -15 15t-4 26v19q0 38 41 38h15z" />
    <glyph glyph-name="ordfeminine" unicode="&#xaa;" horiz-adv-x="304" 
d="M212 327q-22 -33 -65 -33h-24q-91 0 -91 78v18q0 44 27 66.5t93 22.5h25q10 0 18 -0.5t15 -1.5v26q0 31 -15 41.5t-51 10.5q-15 0 -34.5 -2.5t-34.5 -7.5q-14 -4 -15 5l-5 24q-3 11 8 14q18 5 41 8.5t43 3.5q60 0 88.5 -20.5t28.5 -68.5v-205q0 -7 -8 -7h-33q-9 0 -9 7z
M210 431q-6 1 -13.5 1.5t-17.5 0.5h-32q-37 0 -48 -10t-11 -32v-12q0 -21 9 -30t32 -9h21q28 0 44 15t16 48v28z" />
    <glyph glyph-name="ordmasculine" unicode="&#xba;" horiz-adv-x="316" 
d="M90 443q0 -31 3.5 -51t11.5 -32t21 -17t32 -5t32 5t21 17t11.5 32t3.5 51v6q0 61 -15 84t-53 23t-53 -23t-15 -84v-6zM282 435q0 -79 -29.5 -110t-94.5 -31t-94.5 31t-29.5 110v24q0 79 29.5 110t94.5 31t94.5 -31t29.5 -110v-24z" />
    <glyph glyph-name="zero" unicode="0" 
d="M468 310q0 -100 -16 -164t-49 -101q-26 -29 -62 -41.5t-81 -12.5t-81 12.5t-62 41.5q-33 37 -49 101t-16 164v27q0 100 16 164t49 101q26 29 62 41.5t81 12.5t81 -12.5t62 -41.5q33 -37 49 -101t16 -164v-27zM125 317q0 -26 1 -55.5t4.5 -59t11 -57t21.5 -48.5
q31 -50 97 -50t97 50q13 21 21 48.5t11.5 57t4.5 59t1 55.5v13q0 26 -1 55.5t-4.5 59t-11.5 57t-21 48.5q-31 50 -97 50t-97 -50q-14 -21 -21.5 -48.5t-11 -57t-4.5 -59t-1 -55.5v-13z" />
    <glyph glyph-name="one" unicode="1" 
d="M447 56q9 0 12 -4t3 -11v-28q0 -10 -5 -11.5t-10 -1.5h-353q-9 0 -12 3.5t-3 11.5v26q0 7 3 11t12 4h144v523h-7l-103 -62q-13 -8 -21 5l-16 26q-8 12 5 19l110 68q11 7 20 9.5t23 2.5h34q24 0 24 -21v-570h140z" />
    <glyph glyph-name="two" unicode="2" 
d="M102 629q35 12 76.5 19.5t80.5 7.5q41 0 75 -7.5t59 -26.5t39.5 -50.5t14.5 -78.5v-13q0 -36 -7.5 -63t-24 -48.5t-43 -38.5t-63.5 -33l-69 -30q-30 -13 -49 -29.5t-29.5 -37.5t-14.5 -48t-4 -61v-35h279q13 0 13 -13v-30q0 -13 -13 -13h-325q-14 0 -18.5 5.5t-4.5 18.5
v58q0 42 5.5 77.5t20.5 64.5t40.5 52.5t64.5 40.5l69 30q30 13 49.5 26t30.5 28.5t15.5 34.5t4.5 43v7q0 64 -33 91q-29 23 -87 23q-32 0 -68 -7t-66 -18q-13 -5 -17.5 -2t-6.5 10l-8 26q-2 7 0.5 11.5t13.5 8.5z" />
    <glyph glyph-name="three" unicode="3" 
d="M234 47q32 0 60 8t46 25q17 16 24.5 39.5t7.5 52.5v9q0 40 -11 65.5t-32 40.5t-52.5 21t-71.5 6h-30q-9 0 -11.5 3t-2.5 10v30q0 14 16 14h23q78 0 118.5 28t40.5 91v9q0 51 -30.5 76t-82.5 25q-31 0 -61.5 -6t-57.5 -17q-20 -7 -24 7l-8 26q-2 8 0.5 12t13.5 8
q32 12 71 19t73 7q85 0 132 -37.5t47 -114.5v-13q0 -54 -26 -91t-77 -53v-3q49 -10 82.5 -49t33.5 -108v-13q0 -91 -52.5 -137t-155.5 -46q-44 0 -79 4.5t-73 15.5q-17 5 -14 20l6 26q3 16 22 10q33 -11 63 -15.5t72 -4.5z" />
    <glyph glyph-name="four" unicode="4" 
d="M57 166q-19 0 -19 20v17q0 8 5 18t13 24l227 386q9 16 32 16h60q25 0 25 -22v-400h65q17 0 17 -14v-29q0 -16 -17 -16h-65v-149q0 -17 -16 -17h-38q-15 0 -15 17v149h-274zM331 586h-7l-213 -361h220v361z" />
    <glyph glyph-name="five" unicode="5" 
d="M382 206q0 71 -31 106q-16 17 -39.5 26t-58.5 9q-65 0 -118 -33q-8 -5 -12 -5.5t-10 1.5l-15 6q-10 4 -8 17l21 296q1 18 20 18h262q18 0 18 -16v-24q0 -8 -4 -12t-16 -4h-212q-13 0 -14 -13l-14 -202q47 30 118 30q48 0 84.5 -14.5t59.5 -41.5q22 -26 32 -62t10 -80v-11
q0 -54 -15 -92.5t-43 -63.5q-29 -26 -68.5 -38t-92.5 -12q-39 0 -82.5 10.5t-73.5 25.5q-9 5 -11.5 9t0.5 12l10 27q3 9 8.5 10t13.5 -3q29 -17 64.5 -26t71.5 -9t64.5 9t45.5 28q18 19 26.5 48t8.5 65v9z" />
    <glyph glyph-name="six" unicode="6" 
d="M410 642q18 -6 15 -19l-7 -25q-5 -17 -21 -11q-24 8 -43 10.5t-48 2.5q-45 0 -75.5 -16t-50.5 -43q-12 -15 -20 -36.5t-14 -46.5t-9.5 -51.5t-5.5 -51.5q27 23 68.5 37t81.5 14q87 0 135 -49.5t48 -138.5v-18q0 -97 -52.5 -153t-146.5 -56q-59 0 -99 19.5t-64.5 57
t-35 92.5t-10.5 126v24q0 42 4.5 83t14 77t23 65.5t31.5 49.5q32 36 77.5 53.5t104.5 17.5q32 0 56 -3.5t43 -10.5zM268 347q-38 0 -72.5 -14.5t-66.5 -46.5v-14q0 -110 29 -167.5t103 -57.5q63 0 96.5 38.5t33.5 111.5v13q0 70 -33 103.5t-90 33.5z" />
    <glyph glyph-name="seven" unicode="7" 
d="M181 20q-5 -12 -11 -16t-20 -4h-32q-23 0 -14 20l290 571h-315q-13 0 -13 13v30q0 13 13 13h368q24 0 24 -20v-18q0 -12 -7.5 -26.5t-15.5 -31.5z" />
    <glyph glyph-name="eight" unicode="8" 
d="M442 490q0 -51 -24 -92.5t-69 -70.5q111 -53 111 -150v-10q0 -43 -14.5 -75.5t-41.5 -55t-64 -34t-82 -11.5q-46 0 -84 10.5t-65 32t-41.5 53t-14.5 73.5v11q0 53 28.5 96.5t79.5 72.5q-45 23 -68.5 58.5t-23.5 80.5v11q0 76 50.5 121t138.5 45t136 -40t48 -115v-11z
M214 316q-47 -31 -67.5 -67t-20.5 -80v-5q0 -58 36 -87.5t96 -29.5q57 0 93 31t36 88v5q0 39 -24 67.5t-77 49.5zM258 600q-54 0 -85 -28t-31 -78v-8q0 -42 23 -67t71 -45l59 -25q38 31 56 63.5t18 74.5v7q0 51 -28.5 78.5t-82.5 27.5z" />
    <glyph glyph-name="nine" unicode="9" 
d="M109 5q-18 6 -15 19l7 25q4 16 21 11q20 -7 41 -10t50 -3q45 0 75.5 16t50.5 43q23 31 34 82t15 103q-27 -23 -68.5 -37t-81.5 -14q-87 0 -135 49.5t-48 138.5v18q0 44 13 82.5t38.5 67t63 44.5t86.5 16q61 0 101 -20t63.5 -58t33 -93t9.5 -125v-24q0 -42 -5 -82.5
t-14.5 -76.5t-23.5 -65.5t-32 -49.5q-62 -71 -180 -71q-32 0 -55.5 3.5t-43.5 10.5zM251 298q37 0 71.5 14.5t67.5 46.5v14q0 114 -30 170.5t-102 56.5q-63 0 -96.5 -39.5t-33.5 -111.5v-13q0 -70 33 -104t90 -34z" />
    <glyph glyph-name="dollar" unicode="$" 
d="M388 180q0 26 -5 44.5t-17 32t-31.5 22.5t-47.5 16v-234q50 8 75.5 34t25.5 74v11zM133 480q0 -50 26 -72t80 -35v216q-50 0 -78 -24.5t-28 -74.5v-10zM274 747q13 0 13 -14v-85q38 -2 69.5 -7.5t57.5 -13.5q11 -3 13.5 -7t0.5 -12l-8 -32q-2 -8 -6.5 -9.5t-17.5 2.5
q-49 15 -109 20v-227l24 -6q75 -17 111 -54.5t36 -111.5v-16q0 -83 -46.5 -123.5t-124.5 -48.5v-90q0 -14 -15 -14h-18q-15 0 -15 14v88q-49 0 -87.5 7t-69.5 20q-17 7 -13 23l7 27q4 19 23 10q26 -13 63 -21t77 -8v249l-29 7q-72 17 -109.5 55t-37.5 107v15q0 39 14 68
t38 49t56 30t68 10v85q0 14 13 14h22z" />
    <glyph glyph-name="cent" unicode="&#xa2;" 
d="M311 -89q0 -13 -15 -13h-18q-15 0 -15 13v84q-78 4 -117 42q-34 31 -46 81t-12 117v27q0 70 15 115t46 74q19 17 47.5 29.5t66.5 14.5v90q0 13 15 13h18q15 0 15 -13v-91q35 -4 66 -16t50 -26q8 -6 1 -16l-17 -28q-5 -9 -17 -2q-41 24 -83 32v-387q19 2 37 6.5t36 11.5
q20 8 24 -7l7 -23q3 -10 0.5 -14.5t-17.5 -10.5q-16 -7 -39.5 -12t-47.5 -7v-84zM186 88q25 -32 77 -37v388q-42 -4 -69 -30q-14 -14 -22 -32.5t-12 -39t-5 -42t-1 -42.5v-11q0 -58 7 -94.5t25 -59.5z" />
    <glyph glyph-name="Euro" unicode="&#x20ac;" 
d="M102 274v68h-66q-9 0 -12 3.5t-3 11.5v26q0 7 3 11t12 4h67q3 68 16 116.5t39 79.5q53 62 163 62q45 0 86 -9.5t80 -32.5q11 -6 12.5 -12t-3.5 -16l-12 -19q-8 -15 -29 -3q-29 17 -61.5 26.5t-68.5 9.5q-34 0 -63 -9.5t-46 -29.5q-20 -23 -29 -60.5t-11 -102.5h214
q9 0 12 -4t3 -11v-28q0 -10 -5 -11.5t-10 -1.5h-215v-68h215q9 0 12 -4t3 -11v-28q0 -10 -5 -11.5t-10 -1.5h-213q3 -45 12 -75.5t28 -52.5q20 -22 46.5 -32.5t71.5 -10.5q65 0 130 25q11 4 15.5 1t6.5 -11l6 -19q2 -9 -1.5 -15.5t-16.5 -11.5q-30 -12 -64 -18.5t-76 -6.5
q-70 0 -110 16.5t-68 48.5q-23 29 -35 68.5t-17 93.5h-69q-9 0 -12 3.5t-3 11.5v26q0 7 3 11t12 4h66z" />
    <glyph glyph-name="florin" unicode="&#x192;" 
d="M273 -22q-2 -34 -12 -64.5t-30 -53.5q-19 -21 -48.5 -34t-69.5 -13q-38 0 -71 9q-14 4 -11 15l8 31q3 12 18 8q14 -4 27 -5.5t31 -1.5q22 0 39 8t28 22q24 30 27 80l23 327h-59q-9 0 -12 3t-2 10l2 16q1 8 4 11.5t13 5.5l58 10l12 159q2 34 12 64.5t30 53.5
q19 21 48.5 34t69.5 13q38 0 71 -9q14 -4 11 -15l-8 -31q-3 -12 -18 -8q-14 4 -27 5.5t-31 1.5q-22 0 -39 -8t-28 -22q-24 -30 -27 -80l-11 -158h114q20 0 19 -17l-2 -24q-1 -15 -20 -15h-115z" />
    <glyph glyph-name="sterling" unicode="&#xa3;" 
d="M434 579q-23 10 -50 15.5t-53 5.5q-34 0 -54 -5.5t-34 -17.5q-13 -11 -18.5 -31.5t-5.5 -58.5v-125h174q18 0 18 -17v-23q0 -10 -4 -13t-14 -3h-175v-69q0 -54 -17.5 -99.5t-56.5 -79.5v-2h306q11 0 14.5 -3.5t3.5 -14.5v-22q0 -16 -17 -16h-380q-20 0 -20 17v18
q0 10 4.5 14t14.5 11q32 23 55.5 66.5t23.5 98.5v81h-53q-9 0 -12 3t-3 10v18q0 8 3 11.5t13 5.5l52 10v123q0 46 10 77t34 53q43 39 138 39q33 0 63 -5.5t57 -16.5q14 -6 10 -19l-8 -26q-4 -16 -19 -10z" />
    <glyph glyph-name="yen" unicode="&#xa5;" 
d="M197 288q-23 42 -43 80.5t-38 79.5t-35 86t-36 101q-2 7 1.5 9.5t8.5 2.5h44q14 0 18 -10q32 -94 64.5 -173t74.5 -157h7q42 78 74.5 157t64.5 173q4 10 18 10h44q5 0 8.5 -2.5t1.5 -9.5q-19 -56 -36.5 -101t-35.5 -86t-37.5 -79.5t-43.5 -80.5h95q9 0 12 -4t3 -11v-28
q0 -10 -5 -11.5t-10 -1.5h-122v-58h122q9 0 12 -4t3 -11v-28q0 -10 -5 -11.5t-10 -1.5h-122v-104q0 -9 -4 -11.5t-12 -2.5h-39q-8 0 -11 2.5t-3 11.5v104h-123q-9 0 -12 3.5t-3 11.5v26q0 7 3 11t12 4h123v58h-123q-9 0 -12 3.5t-3 11.5v26q0 7 3 11t12 4h95z" />
    <glyph glyph-name="numbersign" unicode="#" horiz-adv-x="609" 
d="M426 258h129q9 0 12.5 -2.5t1.5 -11.5l-9 -36q-3 -13 -22 -13h-126l-38 -178q-4 -17 -24 -17h-37q-16 0 -12 17l38 178h-135l-38 -178q-4 -17 -24 -17h-37q-16 0 -12 17l38 178h-116q-17 0 -13 16l8 32q2 9 6.5 12t14.5 3h114l29 133h-120q-17 0 -13 16l8 32q2 9 6.5 12
t14.5 3h117l39 177q4 16 20 16h41q8 0 11 -3t1 -13l-39 -177h135l39 177q4 16 20 16h41q8 0 11 -3t1 -13l-39 -177h126q18 0 14 -14l-9 -36q-2 -8 -7 -10.5t-15 -2.5h-123zM246 391l-28 -133h135l29 133h-136z" />
    <glyph glyph-name="percent" unicode="%" horiz-adv-x="780" 
d="M532 644q4 7 7.5 9.5t11.5 2.5h38q15 0 9 -13l-354 -640q-7 -12 -22 -12h-35q-16 0 -9 13zM308 473q0 -43 -7.5 -80.5t-31.5 -61.5q-14 -14 -35.5 -22t-51.5 -8t-51.5 8t-35.5 22q-24 24 -31.5 61.5t-7.5 80.5v11q0 43 7.5 80.5t31.5 61.5q14 14 35.5 22t51.5 8t51.5 -8
t35.5 -22q24 -24 31.5 -61.5t7.5 -80.5v-11zM247 483q0 36 -3.5 59.5t-11.5 37.5t-20.5 19.5t-29.5 5.5t-29.5 -5.5t-20.5 -19.5t-11.5 -37.5t-3.5 -59.5v-9q0 -36 3.5 -59.5t11.5 -37.5t20.5 -19.5t29.5 -5.5t29.5 5.5t20.5 19.5t11.5 37.5t3.5 59.5v9zM720 163
q0 -43 -7.5 -80.5t-31.5 -61.5q-14 -14 -35.5 -22t-51.5 -8t-51.5 8t-35.5 22q-24 24 -31.5 61.5t-7.5 80.5v11q0 43 7.5 80.5t31.5 61.5q14 14 35.5 22t51.5 8t51.5 -8t35.5 -22q24 -24 31.5 -61.5t7.5 -80.5v-11zM659 173q0 36 -3.5 59.5t-11.5 37.5t-20.5 19.5t-29.5 5.5
t-29.5 -5.5t-20.5 -19.5t-11.5 -37.5t-3.5 -59.5v-9q0 -36 3.5 -59.5t11.5 -37.5t20.5 -19.5t29.5 -5.5t29.5 5.5t20.5 19.5t11.5 37.5t3.5 59.5v9z" />
    <glyph glyph-name="perthousand" unicode="&#x2030;" horiz-adv-x="1090" 
d="M1032 163q0 -43 -7.5 -80.5t-31.5 -61.5q-14 -14 -35.5 -22t-51.5 -8t-51.5 8t-35.5 22q-24 24 -31.5 61.5t-7.5 80.5v11q0 43 7.5 80.5t31.5 61.5q14 14 35.5 22t51.5 8t51.5 -8t35.5 -22q24 -24 31.5 -61.5t7.5 -80.5v-11zM971 173q0 36 -3.5 59.5t-11.5 37.5
t-20.5 19.5t-29.5 5.5t-29.5 -5.5t-20.5 -19.5t-11.5 -37.5t-3.5 -59.5v-9q0 -36 3.5 -59.5t11.5 -37.5t20.5 -19.5t29.5 -5.5t29.5 5.5t20.5 19.5t11.5 37.5t3.5 59.5v9zM532 644q4 7 7.5 9.5t11.5 2.5h38q15 0 9 -13l-354 -640q-7 -12 -22 -12h-35q-16 0 -9 13zM308 473
q0 -43 -7.5 -80.5t-31.5 -61.5q-14 -14 -35.5 -22t-51.5 -8t-51.5 8t-35.5 22q-24 24 -31.5 61.5t-7.5 80.5v11q0 43 7.5 80.5t31.5 61.5q14 14 35.5 22t51.5 8t51.5 -8t35.5 -22q24 -24 31.5 -61.5t7.5 -80.5v-11zM247 483q0 36 -3.5 59.5t-11.5 37.5t-20.5 19.5t-29.5 5.5
t-29.5 -5.5t-20.5 -19.5t-11.5 -37.5t-3.5 -59.5v-9q0 -36 3.5 -59.5t11.5 -37.5t20.5 -19.5t29.5 -5.5t29.5 5.5t20.5 19.5t11.5 37.5t3.5 59.5v9zM720 163q0 -43 -7.5 -80.5t-31.5 -61.5q-14 -14 -35.5 -22t-51.5 -8t-51.5 8t-35.5 22q-24 24 -31.5 61.5t-7.5 80.5v11
q0 43 7.5 80.5t31.5 61.5q14 14 35.5 22t51.5 8t51.5 -8t35.5 -22q24 -24 31.5 -61.5t7.5 -80.5v-11zM659 173q0 36 -3.5 59.5t-11.5 37.5t-20.5 19.5t-29.5 5.5t-29.5 -5.5t-20.5 -19.5t-11.5 -37.5t-3.5 -59.5v-9q0 -36 3.5 -59.5t11.5 -37.5t20.5 -19.5t29.5 -5.5
t29.5 5.5t20.5 19.5t11.5 37.5t3.5 59.5v9z" />
    <glyph glyph-name="plus" unicode="+" 
d="M292 293h173q9 0 12 -4t3 -11v-37q0 -10 -5 -11.5t-10 -1.5h-173v-173q0 -9 -4 -12t-11 -3h-37q-10 0 -11.5 5t-1.5 10v173h-173q-9 0 -12 3.5t-3 11.5v35q0 7 3 11t12 4h173v173q0 9 3.5 12t11.5 3h35q7 0 11 -3t4 -12v-173z" />
    <glyph glyph-name="minus" unicode="&#x2212;" 
d="M54 228q-9 0 -12 3.5t-3 11.5v35q0 7 3 11t12 4h411q9 0 12 -4t3 -11v-37q0 -10 -5 -11.5t-10 -1.5h-411z" />
    <glyph glyph-name="multiply" unicode="&#xd7;" 
d="M305 260l133 -131q6 -6 5.5 -11.5t-5.5 -10.5l-26 -26q-7 -7 -11 -5t-9 7l-133 131l-132 -132q-6 -7 -11 -6t-10 6l-26 26q-7 7 -4.5 11.5t5.5 8.5l132 132l-129 127q-12 11 0 22l25 24q5 5 10 6t11 -6l128 -128l128 128q6 6 11 5.5t11 -6.5l24 -23q10 -10 0 -22z" />
    <glyph glyph-name="less" unicode="&#x3c;" 
d="M424 122q17 -10 9 -24l-16 -26q-8 -14 -26 -3l-309 168q-9 5 -9 15v18q0 10 9 15l311 170q16 9 24 -5l15 -25q5 -8 4.5 -13t-8.5 -10l-262 -141z" />
    <glyph glyph-name="divide" unicode="&#xf7;" 
d="M262 490q46 0 46 -41v-26q0 -41 -46 -41h-10q-21 0 -33.5 10.5t-12.5 30.5v26q0 20 12.5 30.5t33.5 10.5h10zM262 139q46 0 46 -41v-26q0 -41 -46 -41h-10q-21 0 -33.5 10.5t-12.5 30.5v26q0 20 12.5 30.5t33.5 10.5h10zM54 228q-9 0 -12 3.5t-3 11.5v35q0 7 3 11t12 4
h411q9 0 12 -4t3 -11v-37q0 -10 -5 -11.5t-10 -1.5h-411z" />
    <glyph glyph-name="equal" unicode="=" 
d="M465 198q9 0 12 -4t3 -11v-37q0 -10 -5 -11.5t-10 -1.5h-411q-9 0 -12 3.5t-3 11.5v35q0 7 3 11t12 4h411zM465 388q9 0 12 -4t3 -11v-37q0 -10 -5 -11.5t-10 -1.5h-411q-9 0 -12 3.5t-3 11.5v35q0 7 3 11t12 4h411z" />
    <glyph glyph-name="logicalnot" unicode="&#xac;" 
d="M465 293q15 0 15 -15v-220q0 -9 -4 -12t-11 -3h-37q-10 0 -11.5 5t-1.5 10v170h-361q-9 0 -12 3.5t-3 11.5v35q0 7 3 11t12 4h411z" />
    <glyph glyph-name="greater" unicode="&#x3e;" 
d="M96 400q-18 9 -9 23l16 27q8 14 26 3l309 -168q9 -5 9 -15v-18q0 -10 -9 -15l-306 -167q-21 -11 -29 2l-16 26q-9 14 9 24l258 139z" />
    <glyph glyph-name="notequal" unicode="&#x2260;" 
d="M281 388l50 111q4 8 8.5 11t12.5 3h37q19 0 12 -14l-50 -111h114q9 0 12 -3t3 -12v-37q0 -13 -15 -13h-143l-56 -125h199q15 0 15 -15v-37q0 -8 -3.5 -10.5t-11.5 -2.5h-229l-50 -113q-5 -12 -21 -12h-37q-8 0 -11 3t1 12l49 110h-113q-15 0 -15 15v35q0 15 15 15h142
l56 125h-198q-15 0 -15 15v35q0 9 3.5 12t11.5 3h227z" />
    <glyph glyph-name="approxequal" unicode="&#x2248;" 
d="M213 353q-33 17 -61 17q-20 0 -39 -14t-39 -46q-9 -15 -24 -7l-21 11q-13 7 -5 21q31 53 65 73.5t67 20.5q26 0 46 -6t42 -17l62 -32q33 -17 61 -17q22 0 40.5 14.5t40.5 49.5q6 10 21 3l21 -11q13 -7 5 -21q-31 -53 -64.5 -73.5t-67.5 -20.5q-44 0 -88 23zM213 152
q-33 17 -61 17q-20 0 -39 -14t-39 -46q-9 -15 -24 -7l-21 11q-13 7 -5 21q31 53 65 73.5t67 20.5q26 0 46 -6t42 -17l62 -32q33 -17 61 -17q22 0 40.5 14.5t40.5 49.5q6 10 21 3l21 -11q13 -7 5 -21q-31 -53 -64.5 -73.5t-67.5 -20.5q-44 0 -88 23z" />
    <glyph glyph-name="plusminus" unicode="&#xb1;" 
d="M293 400h173q9 0 12 -4t3 -11v-37q0 -10 -5 -11.5t-10 -1.5h-173v-168q0 -9 -4 -12t-11 -3h-37q-10 0 -11.5 5t-1.5 10v168h-173q-9 0 -12 3.5t-3 11.5v35q0 7 3 11t12 4h173v168q0 9 3.5 12t11.5 3h35q7 0 11 -3t4 -12v-168zM465 65q9 0 12 -4t3 -11v-37q0 -10 -5 -11.5
t-10 -1.5h-411q-9 0 -12 3.5t-3 11.5v35q0 7 3 11t12 4h411z" />
    <glyph glyph-name="lessequal" unicode="&#x2264;" 
d="M439 222q9 -5 10.5 -9t-3.5 -12l-16 -31q-4 -7 -8.5 -7t-14.5 5l-332 170q-9 5 -9 15v18q0 10 9 15l331 170q14 8 21 -3l20 -31q7 -12 -7 -19l-276 -141zM465 65q9 0 12 -4t3 -11v-37q0 -10 -5 -11.5t-10 -1.5h-411q-9 0 -12 3.5t-3 11.5v35q0 7 3 11t12 4h411z" />
    <glyph glyph-name="greaterequal" unicode="&#x2265;" 
d="M356 362l-276 141q-14 7 -7 19l20 31q7 11 21 3l331 -170q9 -5 9 -15v-18q0 -10 -9 -15l-332 -170q-10 -5 -14.5 -5t-8.5 7l-16 31q-5 8 -3.5 12t10.5 9zM466 65q9 0 12 -4t3 -11v-35q0 -8 -3 -11.5t-12 -3.5h-411q-5 0 -10 1.5t-5 11.5v37q0 7 3 11t12 4h411z" />
    <glyph glyph-name="asciicircum" unicode="^" 
d="M117 330q-7 -10 -12.5 -11t-14.5 4l-27 16q-9 5 -10.5 10t4.5 14l158 227q6 8 11 10t17 2h33q13 0 18 -2t11 -10l159 -227q6 -9 4.5 -14t-10.5 -10l-27 -16q-9 -5 -14.5 -4t-12.5 11l-140 194h-8z" />
    <glyph glyph-name="asciitilde" unicode="~" 
d="M215 310q-19 13 -29 18.5t-23 5.5q-18 0 -38 -16.5t-43 -62.5q-8 -16 -25 -6l-29 17q-5 3 -7 8t3 15q32 63 65.5 90t73.5 27q25 0 42.5 -8t43.5 -25l56 -37q18 -12 28.5 -17t22.5 -5q22 0 42.5 21.5t39.5 59.5q5 9 10 9.5t12 -4.5l27 -17q10 -6 11 -12t-4 -17
q-32 -65 -66.5 -88t-63.5 -23t-54 10.5t-42 21.5z" />
    <glyph glyph-name="lozenge" unicode="&#x25ca;" 
d="M261 584h-2l-148 -261l147 -253h2l149 253zM291 6q-5 -8 -10 -11.5t-13 -3.5h-20q-8 0 -12.5 3.5t-9.5 11.5l-166 285q-5 8 -7 12.5t-2 12.5v14q0 8 2 12.5t7 12.5l167 293q5 8 10 11.5t13 3.5h20q8 0 12.5 -3.5t9.5 -11.5l168 -293q5 -8 7 -12.5t2 -12.5v-14
q0 -8 -2 -12.5t-7 -12.5z" />
    <glyph glyph-name="degree" unicode="&#xb0;" horiz-adv-x="317" 
d="M38 600q0 25 8.5 46.5t24.5 38t38 26t48 9.5t48 -9.5t38 -26t25 -38t9 -46.5t-9 -46.5t-25 -38t-38 -26t-48 -9.5t-48 9.5t-38 26t-24.5 38t-8.5 46.5zM95 600q0 -29 18.5 -47.5t43.5 -18.5q27 0 44.5 18.5t17.5 47.5t-17.5 47.5t-44.5 18.5t-44.5 -18.5t-17.5 -47.5z
" />
    <glyph glyph-name="quotesingle" unicode="'" horiz-adv-x="152" 
d="M65 452q-16 0 -16 18l-8 197q-2 21 17 21h36q19 0 17 -21l-8 -197q0 -18 -17 -18h-21z" />
    <glyph glyph-name="quotedbl" unicode="&#x22;" horiz-adv-x="305" 
d="M65 452q-16 0 -16 18l-8 197q-2 21 17 21h36q19 0 17 -21l-8 -197q0 -18 -17 -18h-21zM218 452q-16 0 -16 18l-8 197q-2 21 17 21h36q19 0 17 -21l-8 -197q0 -18 -17 -18h-21z" />
    <glyph glyph-name="radical" unicode="&#x221a;" horiz-adv-x="573" 
d="M22 476q0 14 17 14h103q14 0 19 -15l120 -386h2l174 552q3 9 7 12t15 3h40q19 0 12 -18l-209 -624q-3 -9 -6.5 -11.5t-11.5 -2.5h-44q-16 0 -20 13l-139 420h-62q-17 0 -17 14v29z" />
    <glyph glyph-name="currency" unicode="&#xa4;" 
d="M366 131q-47 -31 -105 -31q-61 0 -107 32l-71 -70q-7 -6 -11.5 -5.5t-9.5 5.5l-25 24q-12 11 0 22l71 70q-14 22 -22.5 48t-8.5 57q0 29 8.5 55t23.5 48l-73 72q-11 9 0 20l26 25q10 10 21 0l71 -70q47 33 107 33q29 0 55.5 -8.5t49.5 -23.5l71 69q7 6 11.5 5.5t9.5 -5.5
l25 -24q12 -11 0 -22l-71 -70q15 -22 24 -48.5t9 -55.5q0 -31 -9 -57.5t-24 -48.5l71 -69q12 -11 0 -22l-25 -24q-5 -5 -9.5 -5.5t-11.5 5.5zM143 283q0 -27 9.5 -49.5t25.5 -38t37.5 -24.5t45.5 -9t45.5 9t37.5 24.5t25.5 38t9.5 49.5t-9.5 49t-25.5 38t-37.5 25t-45.5 9
t-45.5 -9t-37.5 -25t-25.5 -38t-9.5 -49z" />
    <glyph glyph-name="infinity" unicode="&#x221e;" horiz-adv-x="828" 
d="M414 268q-42 -53 -87.5 -79t-104.5 -26q-34 0 -63.5 10t-51.5 29.5t-34.5 49.5t-12.5 70q0 67 41.5 110.5t117.5 43.5q63 0 108.5 -31t86.5 -83q41 52 86.5 83t108.5 31q76 0 117.5 -43.5t41.5 -110.5q0 -40 -12.5 -70t-34.5 -49.5t-51.5 -29.5t-63.5 -10
q-59 0 -104.5 26t-87.5 79zM456 315q37 -52 73 -73t74 -21q42 0 69 25.5t27 73.5q0 50 -26 73t-71 23q-40 0 -75 -25t-71 -76zM372 315q-36 51 -71 76t-75 25q-45 0 -71 -23t-26 -73q0 -48 27 -73.5t69 -25.5q38 0 74 21t73 73z" />
    <glyph glyph-name="mu" unicode="&#xb5;" horiz-adv-x="551" 
d="M436 98q0 -29 8 -40t24 -11q10 0 19.5 1.5t14.5 3.5q13 4 16 -8l6 -22q4 -14 -8 -19q-11 -5 -26 -8.5t-34 -3.5q-65 0 -77 60h-3q-20 -29 -52.5 -44.5t-81.5 -15.5q-35 0 -61.5 7t-46.5 24v-187q0 -13 -14 -13h-37q-14 0 -14 13v641q0 14 14 14h36q15 0 15 -14v-308
q0 -38 5.5 -60t21.5 -36q13 -12 33 -18.5t53 -6.5q26 0 48.5 7t39.5 22.5t26.5 39.5t9.5 59v301q0 14 13 14h38q14 0 14 -14v-378z" />
    <glyph glyph-name="mu" unicode="&#x3bc;" horiz-adv-x="551" 
d="M436 98q0 -29 8 -40t24 -11q10 0 19.5 1.5t14.5 3.5q13 4 16 -8l6 -22q4 -14 -8 -19q-11 -5 -26 -8.5t-34 -3.5q-65 0 -77 60h-3q-20 -29 -52.5 -44.5t-81.5 -15.5q-35 0 -61.5 7t-46.5 24v-187q0 -13 -14 -13h-37q-14 0 -14 13v641q0 14 14 14h36q15 0 15 -14v-308
q0 -38 5.5 -60t21.5 -36q13 -12 33 -18.5t53 -6.5q26 0 48.5 7t39.5 22.5t26.5 39.5t9.5 59v301q0 14 13 14h38q14 0 14 -14v-378z" />
    <glyph glyph-name="partialdiff" unicode="&#x2202;" horiz-adv-x="511" 
d="M127 643q24 12 53 19.5t67 7.5q105 0 155.5 -80.5t50.5 -246.5v-29q0 -68 -8.5 -126.5t-31 -102.5t-61.5 -69t-100 -25q-92 0 -145 53.5t-53 152.5v17q0 44 12.5 81t37 63.5t60.5 41.5t82 15q44 0 79 -15.5t60 -39.5q-2 124 -35.5 190t-109.5 66q-25 0 -48 -6.5
t-42 -16.5q-13 -7 -19 5l-13 26q-4 8 -1.5 11.5t10.5 7.5zM251 359q-33 0 -57.5 -12t-40.5 -32.5t-23.5 -47.5t-7.5 -58v-12q0 -68 33.5 -109t99.5 -41q37 0 62 19.5t40 52t21.5 73.5t6.5 84v14q-29 32 -62.5 50.5t-71.5 18.5z" />
    <glyph glyph-name="summation" unicode="&#x2211;" horiz-adv-x="571" 
d="M75 574q-8 8 -11 14t-3 18v24q0 17 21 17h411q13 0 13 -13v-30q0 -13 -13 -13h-341l226 -267q8 -10 11 -17t3 -16v-12q0 -23 -12 -36l-255 -283h373q13 0 13 -13v-30q0 -13 -13 -13h-432q-21 0 -21 17v28q0 15 9 27l260 289q7 7 7 12q0 6 -7 13z" />
    <glyph glyph-name="product" unicode="&#x220f;" horiz-adv-x="612" 
d="M414 591h-210v-672q0 -9 -4.5 -12t-13.5 -3h-34q-10 0 -13.5 3t-3.5 12v672h-86q-16 0 -16 16v24q0 16 16 16h522q8 0 10 -2t2 -9v-34q0 -11 -14 -11h-86v-672q0 -9 -4.5 -12t-14.5 -3h-30q-11 0 -15.5 3t-4.5 12v672z" />
    <glyph glyph-name="pi" unicode="&#x3c0;" horiz-adv-x="589" 
d="M195 13q0 -13 -17 -13h-31q-17 0 -17 13v420h-69q-18 0 -18 16v25q0 16 18 16h468q10 0 13 -4t3 -13v-24q0 -10 -5 -13t-16 -3h-79v-303q0 -26 1.5 -42.5t6 -25.5t12 -12t19.5 -3q13 0 25 2t20 4q10 3 13 -8l8 -28q3 -10 -8 -14q-14 -5 -32 -8.5t-38 -3.5q-28 0 -45.5 7
t-28 22.5t-14.5 40.5t-4 61v311h-185v-420z" />
    <glyph glyph-name="integral" unicode="&#x222b;" horiz-adv-x="358" 
d="M187 458q7 -90 24 -182.5t26 -173.5q3 -20 3 -40q0 -74 -39 -120.5t-118 -46.5q-29 0 -51 6q-10 2 -7 14l6 29q3 12 15 9q8 -2 18 -3t20 -1q41 0 65 27t24 86q0 8 -0.5 15.5t-1.5 15.5q-3 37 -10.5 81.5t-15.5 91.5t-14.5 94t-9.5 89q-1 8 -1 15.5v14.5q0 39 8.5 71.5
t27.5 56t48 36.5t70 13q14 0 27.5 -2t23.5 -5q8 -2 9 -5.5t-1 -10.5l-5 -31q-1 -10 -15 -7q-18 5 -39 5q-25 0 -41.5 -9.5t-27 -25.5t-15 -36.5t-4.5 -42.5v-14t1 -14z" />
    <glyph glyph-name="Omega" unicode="&#x3a9;" horiz-adv-x="656" 
d="M328 600q-45 0 -78.5 -15.5t-53.5 -41.5q-26 -33 -34 -83t-8 -113v-27q0 -47 7 -85t22.5 -69.5t39 -57t56.5 -47.5q7 -5 11 -8.5t4 -13.5v-25q0 -7 -3 -10.5t-12 -3.5h-199q-12 0 -12 14v28q0 14 12 14h115v3q-60 44 -87 105.5t-27 142.5v52q0 73 15 131.5t51 98.5
q29 32 73.5 49.5t107.5 17.5t107.5 -17.5t73.5 -49.5q36 -40 51 -98.5t15 -131.5v-52q0 -81 -27 -142.5t-87 -105.5v-3h115q12 0 12 -14v-28q0 -14 -12 -14h-199q-9 0 -12 3.5t-3 10.5v25q0 10 4 13.5t11 8.5q33 22 56.5 47.5t39 57t22.5 69.5t7 85v27q0 63 -8 113t-34 83
q-20 26 -53.5 41.5t-78.5 15.5z" />
    <glyph glyph-name="Omega" unicode="&#x2126;" horiz-adv-x="656" 
d="M328 600q-45 0 -78.5 -15.5t-53.5 -41.5q-26 -33 -34 -83t-8 -113v-27q0 -47 7 -85t22.5 -69.5t39 -57t56.5 -47.5q7 -5 11 -8.5t4 -13.5v-25q0 -7 -3 -10.5t-12 -3.5h-199q-12 0 -12 14v28q0 14 12 14h115v3q-60 44 -87 105.5t-27 142.5v52q0 73 15 131.5t51 98.5
q29 32 73.5 49.5t107.5 17.5t107.5 -17.5t73.5 -49.5q36 -40 51 -98.5t15 -131.5v-52q0 -81 -27 -142.5t-87 -105.5v-3h115q12 0 12 -14v-28q0 -14 -12 -14h-199q-9 0 -12 3.5t-3 10.5v25q0 10 4 13.5t11 8.5q33 22 56.5 47.5t39 57t22.5 69.5t7 85v27q0 63 -8 113t-34 83
q-20 26 -53.5 41.5t-78.5 15.5z" />
    <glyph glyph-name="Delta" unicode="&#x394;" horiz-adv-x="608" 
d="M478 64q-20 60 -42 126.5t-44.5 132t-44.5 126t-41 108.5h-5q-19 -48 -41 -109t-44.5 -127t-45 -132.5t-41.5 -124.5h349zM328 647q17 0 23 -17q27 -72 51 -137.5t46.5 -128t44 -124.5t43.5 -126q8 -22 13 -39t5 -34v-24q0 -17 -19 -17h-463q-19 0 -19 17v24q0 17 5 34
t13 39q41 117 85.5 244.5t99.5 271.5q6 17 23 17h49z" />
    <glyph glyph-name="Delta" unicode="&#x2206;" horiz-adv-x="608" 
d="M478 64q-20 60 -42 126.5t-44.5 132t-44.5 126t-41 108.5h-5q-19 -48 -41 -109t-44.5 -127t-45 -132.5t-41.5 -124.5h349zM328 647q17 0 23 -17q27 -72 51 -137.5t46.5 -128t44 -124.5t43.5 -126q8 -22 13 -39t5 -34v-24q0 -17 -19 -17h-463q-19 0 -19 17v24q0 17 5 34
t13 39q41 117 85.5 244.5t99.5 271.5q6 17 23 17h49z" />
    <glyph glyph-name="litre" unicode="&#x2113;" horiz-adv-x="435" 
d="M174 281q73 47 104 99.5t31 122.5q0 45 -18.5 67.5t-46.5 22.5q-33 0 -51.5 -26t-18.5 -92v-194zM174 159q0 -32 5 -53.5t14 -34.5t22 -18.5t30 -5.5q26 0 49.5 14.5t48.5 53.5q8 12 21 4l20 -13q12 -8 3 -23q-29 -50 -66 -71t-80 -21q-69 0 -100.5 39.5t-31.5 124.5v26
q-14 -8 -29.5 -16.5t-30.5 -16.5q-14 -7 -19 5l-10 27q-6 13 6 19q20 10 41 21.5t42 24.5v240q0 87 33.5 127t102.5 40q27 0 50.5 -8t41 -26t28 -47.5t10.5 -71.5q0 -85 -47.5 -153.5t-153.5 -131.5v-55z" />
    <glyph glyph-name="estimated" unicode="&#x212e;" horiz-adv-x="820" 
d="M181 316q-5 0 -5 -5v-182q0 -10 9 -21q42 -45 100.5 -71t126.5 -26q72 0 133.5 29.5t103.5 79.5h54q-51 -58 -126.5 -93.5t-165.5 -35.5q-77 0 -144.5 26t-117.5 71t-79.5 105.5t-29.5 129.5t29.5 130t79.5 106t117.5 71t144.5 26q76 0 143 -26t117.5 -71t79.5 -106
t29 -130v-7h-599zM644 521q0 12 -10 22q-42 43 -99 68t-123 25q-68 0 -126 -25.5t-100 -70.5q-10 -8 -10 -23v-179q0 -5 5 -5h458q5 0 5 5v183z" />
    <glyph glyph-name="numero" unicode="&#x2116;" horiz-adv-x="919" 
d="M666 236q0 -31 3.5 -51t11.5 -32t21 -17t32 -5t32 5t21 17t11.5 32t3.5 51v4q0 61 -15 84t-53 23t-53 -23t-15 -84v-4zM858 227q0 -79 -29.5 -110t-94.5 -31t-94.5 31t-29.5 110v24q0 79 29.5 110t94.5 31t94.5 -31t29.5 -110v-24zM834 47q9 0 12 -4t3 -11v-19
q0 -10 -5 -11.5t-10 -1.5h-199q-9 0 -12 3.5t-3 11.5v17q0 7 3 11t12 4h199zM142 580h-7v-563q0 -17 -14 -17h-36q-14 0 -14 17v600q0 18 7 24t26 6h49q21 0 29.5 -8t16.5 -23l262 -551h7v565q0 17 14 17h36q14 0 14 -17v-600q0 -18 -7 -24t-26 -6h-49q-21 0 -29.5 8
t-16.5 23z" />
    <glyph glyph-name="fraction" unicode="&#x2044;" horiz-adv-x="105" 
d="M208 644q7 12 22 12h35q8 0 9.5 -5t-2.5 -12l-374 -641q-8 -12 -22 -12h-35q-8 0 -10 5t3 12z" />
    <glyph glyph-name="onesuperior" unicode="&#xb9;" horiz-adv-x="330" 
d="M58 447q-11 0 -11 11v27q0 10 11 10h79v236h-4l-62 -44q-10 -7 -16 2l-18 26q-7 10 5 17l63 43q13 9 19 10t20 1h29q22 0 22 -19v-272h80q11 0 11 -11v-27q0 -10 -11 -10h-217z" />
    <glyph glyph-name="twosuperior" unicode="&#xb2;" horiz-adv-x="330" 
d="M81 733q-13 -4 -16 8l-5 26q-2 10 10 14q17 6 40.5 10t49.5 4q52 0 81 -23t29 -67v-6q0 -36 -14 -59t-54 -43l-49 -24q-29 -14 -38.5 -29.5t-9.5 -40.5v-8h151q9 0 9 -8v-31q0 -9 -9 -9h-198q-13 0 -13 13v13q0 55 15 86.5t53 50.5l53 26q26 13 35 25.5t9 34.5v3
q0 27 -16 36t-45 9q-18 0 -36 -3t-32 -8z" />
    <glyph glyph-name="threesuperior" unicode="&#xb3;" horiz-adv-x="330" 
d="M63 492q3 11 14 7q15 -6 35.5 -10t39.5 -4q32 0 49.5 13.5t17.5 37.5v6q0 29 -17.5 41t-61.5 12h-24q-9 0 -9 8v32q0 9 9 9h19q43 0 60.5 13.5t17.5 37.5v6q0 21 -12 32t-42 11q-17 0 -34 -3t-28 -7q-12 -4 -15 6l-6 25q-3 10 9 14q17 6 38 10t49 4q47 0 74 -20t27 -64
v-8q0 -29 -12 -49.5t-38 -28.5v-3q26 -8 42 -25.5t16 -49.5v-8q0 -50 -32.5 -74.5t-94.5 -24.5q-23 0 -46.5 4.5t-43.5 12.5q-9 4 -6 14z" />
    <glyph glyph-name="onehalf" unicode="&#xbd;" horiz-adv-x="800" 
d="M550 286q-13 -4 -16 8l-5 26q-2 10 10 14q17 6 40.5 10t49.5 4q52 0 81 -23t29 -67v-6q0 -36 -14 -59t-54 -43l-49 -24q-29 -14 -38.5 -29.5t-9.5 -40.5v-8h151q9 0 9 -8v-31q0 -9 -9 -9h-198q-13 0 -13 13v13q0 55 15 86.5t53 50.5l53 26q26 13 35 25.5t9 34.5v3
q0 27 -16 36t-45 9q-18 0 -36 -3t-32 -8zM68 308q-11 0 -11 11v27q0 10 11 10h79v236h-4l-62 -44q-10 -7 -16 2l-18 26q-7 10 5 17l63 43q13 9 19 10t20 1h29q22 0 22 -19v-272h80q11 0 11 -11v-27q0 -10 -11 -10h-217zM554 644q7 12 22 12h35q8 0 9.5 -5t-2.5 -12
l-374 -641q-8 -12 -22 -12h-35q-8 0 -10 5t3 12z" />
    <glyph glyph-name="onequarter" unicode="&#xbc;" horiz-adv-x="800" 
d="M672 85v-76q0 -9 -9 -9h-43q-9 0 -9 9v76h-152q-13 0 -13 10v26q0 8 10 22l113 175q8 13 17 17.5t22 4.5h44q20 0 20 -18v-189h36q9 0 9 -9v-29q0 -10 -9 -10h-36zM508 133h103v157h-2zM68 308q-11 0 -11 11v27q0 10 11 10h79v236h-4l-62 -44q-10 -7 -16 2l-18 26
q-7 10 5 17l63 43q13 9 19 10t20 1h29q22 0 22 -19v-272h80q11 0 11 -11v-27q0 -10 -11 -10h-217zM554 644q7 12 22 12h35q8 0 9.5 -5t-2.5 -12l-374 -641q-8 -12 -22 -12h-35q-8 0 -10 5t3 12z" />
    <glyph glyph-name="threequarters" unicode="&#xbe;" horiz-adv-x="800" 
d="M672 85v-76q0 -9 -9 -9h-43q-9 0 -9 9v76h-152q-13 0 -13 10v26q0 8 10 22l113 175q8 13 17 17.5t22 4.5h44q20 0 20 -18v-189h36q9 0 9 -9v-29q0 -10 -9 -10h-36zM508 133h103v157h-2zM80 355q3 11 14 7q15 -6 35.5 -10t39.5 -4q32 0 49.5 13.5t17.5 37.5v6
q0 29 -17.5 41t-61.5 12h-24q-9 0 -9 8v32q0 9 9 9h19q43 0 60.5 13.5t17.5 37.5v6q0 21 -12 32t-42 11q-17 0 -34 -3t-28 -7q-12 -4 -15 6l-6 25q-3 10 9 14q17 6 38 10t49 4q47 0 74 -20t27 -64v-8q0 -29 -12 -49.5t-38 -28.5v-3q26 -8 42 -25.5t16 -49.5v-8
q0 -50 -32.5 -74.5t-94.5 -24.5q-23 0 -46.5 4.5t-43.5 12.5q-9 4 -6 14zM554 644q7 12 22 12h35q8 0 9.5 -5t-2.5 -12l-374 -641q-8 -12 -22 -12h-35q-8 0 -10 5t3 12z" />
    <glyph glyph-name="grave" unicode="`" horiz-adv-x="304" 
d="M256 624q11 -6 5 -20l-10 -22q-4 -8 -9 -9t-16 3l-171 65q-10 5 -13.5 10t0.5 14l17 35q7 16 27 7z" />
    <glyph glyph-name="acute" unicode="&#xb4;" horiz-adv-x="304" 
d="M218 707q20 9 27 -7l17 -35q4 -9 0.5 -14t-13.5 -10l-171 -65q-11 -4 -16 -3t-9 9l-10 22q-6 14 5 20z" />
    <glyph glyph-name="dieresis" unicode="&#xa8;" horiz-adv-x="337" 
d="M92 691q20 0 32 -10t12 -29v-23q0 -20 -12 -29.5t-32 -9.5h-10q-19 0 -30.5 9.5t-11.5 29.5v23q0 19 11.5 29t30.5 10h10zM254 691q43 0 43 -39v-23q0 -39 -43 -39h-10q-19 0 -30.5 9.5t-11.5 29.5v23q0 19 11.5 29t30.5 10h10z" />
    <glyph glyph-name="circumflex" unicode="&#x2c6;" horiz-adv-x="372" 
d="M204 728q7 0 10 -1.5t8 -6.5l105 -119q11 -12 -1 -20l-23 -16q-11 -9 -22 2l-92 96h-5l-92 -96q-11 -11 -22 -2l-23 16q-13 8 -1 20l105 119q5 5 8 6.5t10 1.5h35z" />
    <glyph glyph-name="tilde" unicode="&#x2dc;" horiz-adv-x="403" 
d="M42 602q-7 4 -3 13q20 40 46.5 60.5t55.5 20.5q17 0 31 -5t28 -15l28 -20q12 -9 19.5 -12.5t16.5 -3.5q23 0 53 45q6 10 15 4l26 -16q10 -6 5 -15q-20 -36 -47 -57.5t-56 -21.5q-32 0 -58 19l-28 20q-11 8 -18.5 12t-18.5 4q-14 0 -26.5 -10.5t-26.5 -34.5q-4 -7 -7.5 -7
t-9.5 4z" />
    <glyph glyph-name="macron" unicode="&#xaf;" horiz-adv-x="335" 
d="M280 669q9 0 12 -4t3 -11v-35q0 -10 -5 -11.5t-10 -1.5h-225q-9 0 -12 3.5t-3 11.5v33q0 7 3 11t12 4h225z" />
    <glyph glyph-name="breve" unicode="&#x2d8;" horiz-adv-x="372" 
d="M275 693q2 8 5.5 9.5t13.5 -1.5l28 -8q13 -4 9 -18q-15 -55 -54.5 -82.5t-90.5 -27.5t-90.5 27.5t-54.5 82.5q-4 14 9 18l28 8q10 3 13.5 1.5t5.5 -9.5q12 -39 34.5 -56t54.5 -17t55 17.5t34 55.5z" />
    <glyph glyph-name="dotaccent" unicode="&#x2d9;" horiz-adv-x="200" 
d="M40 637q0 25 17.5 42.5t42.5 17.5t42.5 -17.5t17.5 -42.5t-17.5 -42.5t-42.5 -17.5t-42.5 17.5t-17.5 42.5z" />
    <glyph glyph-name="ring" unicode="&#x2da;" horiz-adv-x="262" 
d="M40 637q0 43 26.5 67t64.5 24t64.5 -24t26.5 -67t-26.5 -67t-64.5 -24t-64.5 24t-26.5 67zM87 637q0 -21 12.5 -32.5t31.5 -11.5t31.5 11.5t12.5 32.5t-12.5 32.5t-31.5 11.5t-31.5 -11.5t-12.5 -32.5z" />
    <glyph glyph-name="cedilla" unicode="&#xb8;" horiz-adv-x="266" 
d="M128 -64q8 2 16 2h17q29 0 49.5 -18t20.5 -58q0 -48 -28.5 -70.5t-88.5 -22.5q-14 0 -32 2.5t-34 7.5q-8 3 -7 11l4 30q3 11 12 8q13 -4 27.5 -6.5t27.5 -2.5q30 0 44.5 7.5t14.5 33.5q0 16 -7 23.5t-27 7.5q-9 0 -19 -1t-19 -3q-10 -3 -15 4l-8 13q-3 6 -2 15l12 75
q2 6 9 6h34q8 0 7 -7z" />
    <glyph glyph-name="hungarumlaut" unicode="&#x2dd;" horiz-adv-x="484" 
d="M187 727q8 7 14 5.5t13 -9.5l21 -26q11 -15 -7 -27l-147 -99q-8 -5 -12.5 -4.5t-10.5 8.5l-14 18q-5 7 -3.5 12.5t6.5 10.5zM391 727q8 7 14 5.5t13 -9.5l21 -26q11 -15 -7 -27l-147 -99q-8 -5 -12.5 -4.5t-10.5 8.5l-14 18q-5 7 -3.5 12.5t6.5 10.5z" />
    <glyph glyph-name="ogonek" unicode="&#x2db;" horiz-adv-x="265" 
d="M47 -121q0 41 24 70.5t59 52.5q5 3 9 3.5t9 0.5h30q5 0 5.5 -3t-2.5 -5q-41 -34 -54 -58.5t-13 -47.5q0 -36 43 -36q11 0 24.5 3t23.5 8q11 5 14 -5l6 -28q3 -10 -8 -15q-16 -7 -35 -11t-39 -4q-45 0 -70.5 18.5t-25.5 56.5z" />
    <glyph glyph-name="caron" unicode="&#x2c7;" horiz-adv-x="372" 
d="M170 561q-5 0 -9 1.5t-9 6.5l-107 119q-11 12 1 20l23 16q11 9 22 -2l92 -96h5l92 96q11 11 22 2l23 -16q12 -8 1 -20l-107 -119q-5 -5 -9 -6.5t-9 -1.5h-31z" />
    <glyph glyph-name="commaaccent" unicode="&#x326;" horiz-adv-x="235" 
d="M134 -69q17 0 26 -8.5t9 -29.5v-18q0 -69 -62 -130q-9 -9 -17 -3l-14 12q-8 7 -2 14q8 10 19 24t17 27q8 15 -8 23q-12 6 -17.5 13.5t-5.5 24.5v18q0 17 9.5 25t24.5 8h21z" />
    <glyph glyph-name="grave.cap" horiz-adv-x="304" 
d="M256 747q11 -6 5 -20l-10 -22q-5 -8 -9.5 -9t-15.5 3l-171 65q-20 8 -13 24l17 35q7 16 27 7z" />
    <glyph glyph-name="acute.cap" horiz-adv-x="304" 
d="M218 830q20 9 27 -7l17 -35q7 -16 -13 -24l-171 -65q-11 -4 -16 -3t-9 9l-10 22q-6 14 5 20z" />
    <glyph glyph-name="dieresis.cap" horiz-adv-x="337" 
d="M92 823q20 0 32 -10t12 -29v-23q0 -20 -12 -29.5t-32 -9.5h-10q-19 0 -30.5 9.5t-11.5 29.5v23q0 19 11.5 29t30.5 10h10zM254 823q43 0 43 -39v-23q0 -39 -43 -39h-10q-19 0 -30.5 9.5t-11.5 29.5v23q0 19 11.5 29t30.5 10h10z" />
    <glyph glyph-name="circumflex.cap" horiz-adv-x="372" 
d="M204 866q7 0 10 -1.5t8 -6.5l105 -119q11 -12 -1 -20l-23 -16q-11 -9 -22 2l-92 96h-5l-92 -96q-11 -11 -22 -2l-23 16q-13 8 -1 20l105 119q5 5 8 6.5t10 1.5h35z" />
    <glyph glyph-name="tilde.cap" horiz-adv-x="403" 
d="M42 733q-7 4 -3 13q20 40 46.5 60.5t55.5 20.5q17 0 31 -5t28 -15l28 -20q12 -9 19.5 -12.5t16.5 -3.5q23 0 53 45q6 10 15 4l26 -16q10 -6 5 -15q-20 -36 -47 -57.5t-56 -21.5q-32 0 -58 19l-28 20q-11 8 -18.5 12t-18.5 4q-14 0 -26.5 -10.5t-26.5 -34.5q-4 -7 -7.5 -7
t-9.5 4z" />
    <glyph glyph-name="macron.cap" horiz-adv-x="335" 
d="M280 792q9 0 12 -4t3 -11v-35q0 -10 -5 -11.5t-10 -1.5h-225q-9 0 -12 3.5t-3 11.5v33q0 7 3 11t12 4h225z" />
    <glyph glyph-name="breve.cap" horiz-adv-x="372" 
d="M275 823q2 8 5.5 9.5t13.5 -1.5l28 -8q13 -4 9 -18q-15 -55 -54.5 -82.5t-90.5 -27.5t-90.5 27.5t-54.5 82.5q-4 14 9 18l28 8q10 3 13.5 1.5t5.5 -9.5q12 -39 34.5 -56t54.5 -17t55 17.5t34 55.5z" />
    <glyph glyph-name="dotaccent.cap" horiz-adv-x="200" 
d="M40 770q0 25 17.5 42.5t42.5 17.5t42.5 -17.5t17.5 -42.5t-17.5 -42.5t-42.5 -17.5t-42.5 17.5t-17.5 42.5z" />
    <glyph glyph-name="ring.cap" horiz-adv-x="262" 
d="M40 790q0 43 26.5 67t64.5 24t64.5 -24t26.5 -67t-26.5 -67t-64.5 -24t-64.5 24t-26.5 67zM87 790q0 -21 12.5 -32.5t31.5 -11.5t31.5 11.5t12.5 32.5t-12.5 32.5t-31.5 11.5t-31.5 -11.5t-12.5 -32.5z" />
    <glyph glyph-name="hungarumlaut.cap" horiz-adv-x="484" 
d="M187 850q8 7 14 5.5t13 -9.5l21 -26q11 -15 -7 -27l-147 -99q-8 -5 -12.5 -4.5t-10.5 8.5l-14 18q-5 7 -3.5 12.5t6.5 10.5zM391 850q8 7 14 5.5t13 -9.5l21 -26q11 -15 -7 -27l-147 -99q-8 -5 -12.5 -4.5t-10.5 8.5l-14 18q-5 7 -3.5 12.5t6.5 10.5z" />
    <glyph glyph-name="caron.cap" horiz-adv-x="372" 
d="M170 700q-5 0 -9 1.5t-9 6.5l-107 119q-11 12 1 20l23 16q11 9 22 -2l92 -96h5l92 96q11 11 22 2l23 -16q12 -8 1 -20l-107 -119q-5 -5 -9 -6.5t-9 -1.5h-31z" />
    <glyph glyph-name="Agrave" unicode="&#xc0;" horiz-adv-x="528" 
d="M282 647q19 0 26 -4.5t15 -23.5q14 -35 27 -74.5t26 -78.5q34 -106 67 -219t62 -228q4 -19 -13 -19h-39q-16 0 -20 16q-12 48 -24 94t-25 92h-241l-48 -186q-4 -16 -20 -16h-40q-17 0 -13 17q29 115 62 229t68 220q13 39 26.5 78.5t27.5 74.5q8 19 14.5 23.5t25.5 4.5h36
zM213 442q-13 -43 -26.5 -89t-26.5 -91h208l-53 180q-8 29 -20.5 67t-24.5 73h-12q-12 -35 -24.5 -73t-20.5 -67zM351 757q11 -6 5 -20l-10 -22q-5 -8 -9.5 -9t-15.5 3l-171 65q-20 8 -13 24l17 35q7 16 27 7z" />
    <glyph glyph-name="Aacute" unicode="&#xc1;" horiz-adv-x="528" 
d="M282 647q19 0 26 -4.5t15 -23.5q14 -35 27 -74.5t26 -78.5q34 -106 67 -219t62 -228q4 -19 -13 -19h-39q-16 0 -20 16q-12 48 -24 94t-25 92h-241l-48 -186q-4 -16 -20 -16h-40q-17 0 -13 17q29 115 62 229t68 220q13 39 26.5 78.5t27.5 74.5q8 19 14.5 23.5t25.5 4.5h36
zM213 442q-13 -43 -26.5 -89t-26.5 -91h208l-53 180q-8 29 -20.5 67t-24.5 73h-12q-12 -35 -24.5 -73t-20.5 -67zM356 840q20 9 27 -7l17 -35q7 -16 -13 -24l-171 -65q-11 -4 -16 -3t-9 9l-10 22q-6 14 5 20z" />
    <glyph glyph-name="Acircumflex" unicode="&#xc2;" horiz-adv-x="528" 
d="M282 647q19 0 26 -4.5t15 -23.5q14 -35 27 -74.5t26 -78.5q34 -106 67 -219t62 -228q4 -19 -13 -19h-39q-16 0 -20 16q-12 48 -24 94t-25 92h-241l-48 -186q-4 -16 -20 -16h-40q-17 0 -13 17q29 115 62 229t68 220q13 39 26.5 78.5t27.5 74.5q8 19 14.5 23.5t25.5 4.5h36
zM213 442q-13 -43 -26.5 -89t-26.5 -91h208l-53 180q-8 29 -20.5 67t-24.5 73h-12q-12 -35 -24.5 -73t-20.5 -67zM282 876q7 0 10 -1.5t8 -6.5l105 -119q11 -12 -1 -20l-23 -16q-11 -9 -22 2l-92 96h-5l-92 -96q-11 -11 -22 -2l-23 16q-13 8 -1 20l105 119q5 5 8 6.5t10 1.5
h35z" />
    <glyph glyph-name="Atilde" unicode="&#xc3;" horiz-adv-x="528" 
d="M282 647q19 0 26 -4.5t15 -23.5q14 -35 27 -74.5t26 -78.5q34 -106 67 -219t62 -228q4 -19 -13 -19h-39q-16 0 -20 16q-12 48 -24 94t-25 92h-241l-48 -186q-4 -16 -20 -16h-40q-17 0 -13 17q29 115 62 229t68 220q13 39 26.5 78.5t27.5 74.5q8 19 14.5 23.5t25.5 4.5h36
zM213 442q-13 -43 -26.5 -89t-26.5 -91h208l-53 180q-8 29 -20.5 67t-24.5 73h-12q-12 -35 -24.5 -73t-20.5 -67zM109 743q-7 4 -3 13q20 40 46.5 60.5t55.5 20.5q17 0 31 -5t28 -15l28 -20q12 -9 19.5 -12.5t16.5 -3.5q23 0 53 45q6 10 15 4l26 -16q10 -6 5 -15
q-20 -36 -47 -57.5t-56 -21.5q-32 0 -58 19l-28 20q-11 8 -18.5 12t-18.5 4q-14 0 -26.5 -10.5t-26.5 -34.5q-4 -7 -7.5 -7t-9.5 4z" />
    <glyph glyph-name="Adieresis" unicode="&#xc4;" horiz-adv-x="528" 
d="M282 647q19 0 26 -4.5t15 -23.5q14 -35 27 -74.5t26 -78.5q34 -106 67 -219t62 -228q4 -19 -13 -19h-39q-16 0 -20 16q-12 48 -24 94t-25 92h-241l-48 -186q-4 -16 -20 -16h-40q-17 0 -13 17q29 115 62 229t68 220q13 39 26.5 78.5t27.5 74.5q8 19 14.5 23.5t25.5 4.5h36
zM213 442q-13 -43 -26.5 -89t-26.5 -91h208l-53 180q-8 29 -20.5 67t-24.5 73h-12q-12 -35 -24.5 -73t-20.5 -67zM188 833q20 0 32 -10t12 -29v-23q0 -20 -12 -29.5t-32 -9.5h-10q-19 0 -30.5 9.5t-11.5 29.5v23q0 19 11.5 29t30.5 10h10zM350 833q43 0 43 -39v-23
q0 -39 -43 -39h-10q-19 0 -30.5 9.5t-11.5 29.5v23q0 19 11.5 29t30.5 10h10z" />
    <glyph glyph-name="Amacron" unicode="&#x100;" horiz-adv-x="528" 
d="M282 647q19 0 26 -4.5t15 -23.5q14 -35 27 -74.5t26 -78.5q34 -106 67 -219t62 -228q4 -19 -13 -19h-39q-16 0 -20 16q-12 48 -24 94t-25 92h-241l-48 -186q-4 -16 -20 -16h-40q-17 0 -13 17q29 115 62 229t68 220q13 39 26.5 78.5t27.5 74.5q8 19 14.5 23.5t25.5 4.5h36
zM213 442q-13 -43 -26.5 -89t-26.5 -91h208l-53 180q-8 29 -20.5 67t-24.5 73h-12q-12 -35 -24.5 -73t-20.5 -67zM377 792q9 0 12 -4t3 -11v-35q0 -10 -5 -11.5t-10 -1.5h-225q-9 0 -12 3.5t-3 11.5v33q0 7 3 11t12 4h225z" />
    <glyph glyph-name="Abreve" unicode="&#x102;" horiz-adv-x="528" 
d="M282 647q19 0 26 -4.5t15 -23.5q14 -35 27 -74.5t26 -78.5q34 -106 67 -219t62 -228q4 -19 -13 -19h-39q-16 0 -20 16q-12 48 -24 94t-25 92h-241l-48 -186q-4 -16 -20 -16h-40q-17 0 -13 17q29 115 62 229t68 220q13 39 26.5 78.5t27.5 74.5q8 19 14.5 23.5t25.5 4.5h36
zM213 442q-13 -43 -26.5 -89t-26.5 -91h208l-53 180q-8 29 -20.5 67t-24.5 73h-12q-12 -35 -24.5 -73t-20.5 -67zM353 823q2 8 5.5 9.5t13.5 -1.5l28 -8q13 -4 9 -18q-15 -55 -54.5 -82.5t-90.5 -27.5t-90.5 27.5t-54.5 82.5q-4 14 9 18l28 8q10 3 13.5 1.5t5.5 -9.5
q12 -39 34.5 -56t54.5 -17t55 17.5t34 55.5z" />
    <glyph glyph-name="Acaron" unicode="&#x1cd;" horiz-adv-x="528" 
d="M282 647q19 0 26 -4.5t15 -23.5q14 -35 27 -74.5t26 -78.5q34 -106 67 -219t62 -228q4 -19 -13 -19h-39q-16 0 -20 16q-12 48 -24 94t-25 92h-241l-48 -186q-4 -16 -20 -16h-40q-17 0 -13 17q29 115 62 229t68 220q13 39 26.5 78.5t27.5 74.5q8 19 14.5 23.5t25.5 4.5h36
zM213 442q-13 -43 -26.5 -89t-26.5 -91h208l-53 180q-8 29 -20.5 67t-24.5 73h-12q-12 -35 -24.5 -73t-20.5 -67zM249 700q-5 0 -9 1.5t-9 6.5l-107 119q-11 12 1 20l23 16q11 9 22 -2l92 -96h5l92 96q11 11 22 2l23 -16q12 -8 1 -20l-107 -119q-5 -5 -9 -6.5t-9 -1.5h-31z
" />
    <glyph glyph-name="Aring" unicode="&#xc5;" horiz-adv-x="528" 
d="M282 647q19 0 26 -4.5t15 -23.5q14 -35 27 -74.5t26 -78.5q34 -106 67 -219t62 -228q4 -19 -13 -19h-39q-16 0 -20 16q-12 48 -24 94t-25 92h-241l-48 -186q-4 -16 -20 -16h-40q-17 0 -13 17q29 115 62 229t68 220q13 39 26.5 78.5t27.5 74.5q8 19 14.5 23.5t25.5 4.5h36
zM213 442q-13 -43 -26.5 -89t-26.5 -91h208l-53 180q-8 29 -20.5 67t-24.5 73h-12q-12 -35 -24.5 -73t-20.5 -67zM171 790q0 43 26.5 67t64.5 24t64.5 -24t26.5 -67t-26.5 -67t-64.5 -24t-64.5 24t-26.5 67zM218 790q0 -21 12.5 -32.5t31.5 -11.5t31.5 11.5t12.5 32.5
t-12.5 32.5t-31.5 11.5t-31.5 -11.5t-12.5 -32.5z" />
    <glyph glyph-name="Aringacute" unicode="&#x1fa;" horiz-adv-x="528" 
d="M282 647q19 0 26 -4.5t15 -23.5q14 -35 27 -74.5t26 -78.5q34 -106 67 -219t62 -228q4 -19 -13 -19h-39q-16 0 -20 16q-12 48 -24 94t-25 92h-241l-48 -186q-4 -16 -20 -16h-40q-17 0 -13 17q29 115 62 229t68 220q13 39 26.5 78.5t27.5 74.5q8 19 14.5 23.5t25.5 4.5h36
zM213 442q-13 -43 -26.5 -89t-26.5 -91h208l-53 180q-8 29 -20.5 67t-24.5 73h-12q-12 -35 -24.5 -73t-20.5 -67zM172 784q0 43 26.5 67t64.5 24t64.5 -24t26.5 -67t-26.5 -67t-64.5 -24t-64.5 24t-26.5 67zM219 784q0 -21 12.5 -32.5t31.5 -11.5t31.5 11.5t12.5 32.5
t-12.5 32.5t-31.5 11.5t-31.5 -11.5t-12.5 -32.5zM354 1038q20 9 27 -7l17 -35q4 -9 0.5 -14t-13.5 -10l-171 -65q-11 -4 -16 -3t-9 9l-10 22q-6 14 5 20z" />
    <glyph glyph-name="Aogonek" unicode="&#x104;" horiz-adv-x="543" 
d="M434 10q-12 48 -24.5 97t-25.5 95h-241l-48 -186q-4 -16 -20 -16h-40q-17 0 -13 17q29 115 62 229t68 220q13 39 26.5 78.5t27.5 74.5q8 19 14.5 23.5t25.5 4.5h36q19 0 26 -4.5t15 -23.5q14 -35 27 -74.5t26 -78.5q34 -106 67 -219t62 -228q2 -5 1 -9.5t-6 -8.5
q-46 -33 -64.5 -59.5t-18.5 -49.5q0 -36 43 -36q13 0 25.5 3t22.5 8q11 5 14 -5l6 -28q3 -10 -8 -15q-16 -7 -32.5 -11t-41.5 -4q-45 0 -70.5 18.5t-25.5 56.5q0 42 25.5 76t58.5 55zM213 442q-13 -43 -26.5 -89t-26.5 -91h208l-53 180q-8 29 -20.5 67t-24.5 73h-12
q-12 -35 -24.5 -73t-20.5 -67z" />
    <glyph glyph-name="AE" unicode="&#xc6;" horiz-adv-x="802" 
d="M746 647q9 0 12 -3.5t3 -11.5v-26q0 -7 -3 -11t-12 -4h-278v-229h244q9 0 12 -3.5t3 -11.5v-26q0 -7 -3 -11t-12 -4h-244v-199q0 -29 12 -41q11 -10 41 -10h225q9 0 12 -4t3 -11v-26q0 -8 -3 -11.5t-12 -3.5h-230q-31 0 -51.5 5t-34.5 17t-22.5 31.5t-8.5 48.5v100h-202
l-87 -186q-7 -16 -22 -16h-38q-22 0 -13 19q46 96 84.5 175t74 148.5t68.5 133t69 128.5q12 22 28.5 32.5t48.5 10.5h336zM394 591q-26 -50 -47.5 -91t-41 -79t-38.5 -76.5t-40 -82.5h172v329h-5z" />
    <glyph glyph-name="AEacute" unicode="&#x1fc;" horiz-adv-x="802" 
d="M746 647q9 0 12 -3.5t3 -11.5v-26q0 -7 -3 -11t-12 -4h-278v-229h244q9 0 12 -3.5t3 -11.5v-26q0 -7 -3 -11t-12 -4h-244v-199q0 -29 12 -41q11 -10 41 -10h225q9 0 12 -4t3 -11v-26q0 -8 -3 -11.5t-12 -3.5h-230q-31 0 -51.5 5t-34.5 17t-22.5 31.5t-8.5 48.5v100h-202
l-87 -186q-7 -16 -22 -16h-38q-22 0 -13 19q46 96 84.5 175t74 148.5t68.5 133t69 128.5q12 22 28.5 32.5t48.5 10.5h336zM394 591q-26 -50 -47.5 -91t-41 -79t-38.5 -76.5t-40 -82.5h172v329h-5zM651 830q20 9 27 -7l17 -35q7 -16 -13 -24l-171 -65q-11 -4 -16 -3t-9 9
l-10 22q-6 14 5 20z" />
    <glyph glyph-name="Cacute" unicode="&#x106;" horiz-adv-x="504" 
d="M458 609q12 -7 5 -19l-17 -26q-7 -10 -20 -3q-32 19 -66 29t-71 10q-38 0 -66 -11.5t-48 -31.5q-30 -31 -39 -82t-9 -137v-28q0 -44 1.5 -77.5t6.5 -59.5t13.5 -45.5t22.5 -35.5q20 -22 50.5 -33.5t77.5 -11.5q36 0 69.5 7t65.5 19q19 7 23 -9l7 -22q4 -15 -13 -22
q-32 -13 -72 -21t-80 -8q-73 0 -117.5 16.5t-72.5 48.5q-32 38 -43.5 97t-11.5 144v53q0 94 17 157.5t63 101.5q58 47 152 47q53 0 94 -12t78 -35zM380 830q20 9 27 -7l17 -35q7 -16 -13 -24l-171 -65q-11 -4 -16 -3t-9 9l-10 22q-6 14 5 20z" />
    <glyph glyph-name="Ccedilla" unicode="&#xc7;" horiz-adv-x="504" 
d="M458 609q12 -7 5 -19l-17 -26q-7 -10 -20 -3q-32 19 -66 29t-71 10q-38 0 -66 -11.5t-48 -31.5q-30 -31 -39 -82t-9 -137v-28q0 -44 1.5 -77.5t6.5 -59.5t13.5 -45.5t22.5 -35.5q20 -22 50.5 -33.5t77.5 -11.5q36 0 69.5 7t65.5 19q19 7 23 -9l7 -22q4 -15 -13 -22
q-32 -13 -72 -21t-80 -8l-6 -48q8 2 16 2h17q29 0 49.5 -18t20.5 -58q0 -48 -28.5 -70.5t-88.5 -22.5q-14 0 -32 2.5t-34 7.5q-8 3 -7 11l4 30q3 11 12 8q13 -4 27.5 -6.5t27.5 -2.5q30 0 44.5 7.5t14.5 33.5q0 16 -7 23.5t-27 7.5q-9 0 -19 -1t-19 -3q-10 -3 -15 4l-8 13
q-3 6 -2 15l10 67q-51 5 -84 21t-56 42q-32 38 -43.5 97t-11.5 144v53q0 94 17 157.5t63 101.5q58 47 152 47q53 0 94 -12t78 -35z" />
    <glyph glyph-name="Ccircumflex" unicode="&#x108;" horiz-adv-x="504" 
d="M458 609q12 -7 5 -19l-17 -26q-7 -10 -20 -3q-32 19 -66 29t-71 10q-38 0 -66 -11.5t-48 -31.5q-30 -31 -39 -82t-9 -137v-28q0 -44 1.5 -77.5t6.5 -59.5t13.5 -45.5t22.5 -35.5q20 -22 50.5 -33.5t77.5 -11.5q36 0 69.5 7t65.5 19q19 7 23 -9l7 -22q4 -15 -13 -22
q-32 -13 -72 -21t-80 -8q-73 0 -117.5 16.5t-72.5 48.5q-32 38 -43.5 97t-11.5 144v53q0 94 17 157.5t63 101.5q58 47 152 47q53 0 94 -12t78 -35zM308 866q7 0 10 -1.5t8 -6.5l105 -119q11 -12 -1 -20l-23 -16q-11 -9 -22 2l-92 96h-5l-92 -96q-11 -11 -22 -2l-23 16
q-13 8 -1 20l105 119q5 5 8 6.5t10 1.5h35z" />
    <glyph glyph-name="Ccaron" unicode="&#x10c;" horiz-adv-x="504" 
d="M458 609q12 -7 5 -19l-17 -26q-7 -10 -20 -3q-32 19 -66 29t-71 10q-38 0 -66 -11.5t-48 -31.5q-30 -31 -39 -82t-9 -137v-28q0 -44 1.5 -77.5t6.5 -59.5t13.5 -45.5t22.5 -35.5q20 -22 50.5 -33.5t77.5 -11.5q36 0 69.5 7t65.5 19q19 7 23 -9l7 -22q4 -15 -13 -22
q-32 -13 -72 -21t-80 -8q-73 0 -117.5 16.5t-72.5 48.5q-32 38 -43.5 97t-11.5 144v53q0 94 17 157.5t63 101.5q58 47 152 47q53 0 94 -12t78 -35zM273 700q-5 0 -9 1.5t-9 6.5l-107 119q-11 12 1 20l23 16q11 9 22 -2l92 -96h5l92 96q11 11 22 2l23 -16q12 -8 1 -20
l-107 -119q-5 -5 -9 -6.5t-9 -1.5h-31z" />
    <glyph glyph-name="Cdotaccent" unicode="&#x10a;" horiz-adv-x="504" 
d="M458 609q12 -7 5 -19l-17 -26q-7 -10 -20 -3q-32 19 -66 29t-71 10q-38 0 -66 -11.5t-48 -31.5q-30 -31 -39 -82t-9 -137v-28q0 -44 1.5 -77.5t6.5 -59.5t13.5 -45.5t22.5 -35.5q20 -22 50.5 -33.5t77.5 -11.5q36 0 69.5 7t65.5 19q19 7 23 -9l7 -22q4 -15 -13 -22
q-32 -13 -72 -21t-80 -8q-73 0 -117.5 16.5t-72.5 48.5q-32 38 -43.5 97t-11.5 144v53q0 94 17 157.5t63 101.5q58 47 152 47q53 0 94 -12t78 -35zM226 770q0 25 17.5 42.5t42.5 17.5t42.5 -17.5t17.5 -42.5t-17.5 -42.5t-42.5 -17.5t-42.5 17.5t-17.5 42.5z" />
    <glyph glyph-name="Dcaron" unicode="&#x10e;" horiz-adv-x="582" 
d="M95 0q-24 0 -24 25v600q0 12 4.5 18t18.5 8q15 1 27 2t24.5 2t28 1h37.5q81 0 141.5 -14t100.5 -50q38 -35 56.5 -90.5t18.5 -148.5v-50q0 -79 -16 -136.5t-50.5 -94.5t-89.5 -54.5t-133 -17.5h-144zM228 600h-41t-35 -2q-12 -1 -12 -15v-514q0 -13 12 -13h76q32 0 56 2
t43 7t34.5 13.5t30.5 20.5q32 27 47.5 75t15.5 137v32q0 79 -12.5 125t-39.5 76q-28 31 -71.5 43.5t-103.5 12.5zM276 700q-5 0 -9 1.5t-9 6.5l-107 119q-11 12 1 20l23 16q11 9 22 -2l92 -96h5l92 96q11 11 22 2l23 -16q12 -8 1 -20l-107 -119q-5 -5 -9 -6.5t-9 -1.5h-31z
" />
    <glyph glyph-name="Dcroat" unicode="&#x110;" horiz-adv-x="582" 
d="M95 0q-24 0 -24 25v279h-63q-9 0 -12 3.5t-3 11.5v28q0 7 3 11t12 4h63v263q0 12 4.5 18t18.5 8q15 1 27 2t24.5 2t28 1h37.5q81 0 141.5 -14t100.5 -50q38 -35 56.5 -90.5t18.5 -148.5v-50q0 -79 -16 -136.5t-50.5 -94.5t-89.5 -54.5t-133 -17.5h-144zM228 600h-41
t-35 -2q-12 -1 -12 -15v-221h130q9 0 12 -4t3 -11v-30q0 -10 -5 -11.5t-10 -1.5h-130v-235q0 -13 12 -13h76q32 0 56 2t43 7t34.5 13.5t30.5 20.5q32 27 47.5 75t15.5 137v32q0 79 -12.5 125t-39.5 76q-28 31 -71.5 43.5t-103.5 12.5z" />
    <glyph glyph-name="Eth" unicode="&#xd0;" horiz-adv-x="582" 
d="M95 0q-24 0 -24 25v279h-63q-9 0 -12 3.5t-3 11.5v28q0 7 3 11t12 4h63v263q0 12 4.5 18t18.5 8q15 1 27 2t24.5 2t28 1h37.5q81 0 141.5 -14t100.5 -50q38 -35 56.5 -90.5t18.5 -148.5v-50q0 -79 -16 -136.5t-50.5 -94.5t-89.5 -54.5t-133 -17.5h-144zM228 600h-41
t-35 -2q-12 -1 -12 -15v-221h130q9 0 12 -4t3 -11v-30q0 -10 -5 -11.5t-10 -1.5h-130v-235q0 -13 12 -13h76q32 0 56 2t43 7t34.5 13.5t30.5 20.5q32 27 47.5 75t15.5 137v32q0 79 -12.5 125t-39.5 76q-28 31 -71.5 43.5t-103.5 12.5z" />
    <glyph glyph-name="Egrave" unicode="&#xc8;" horiz-adv-x="471" 
d="M183 0q-31 0 -51.5 5t-34.5 17t-21.5 31.5t-9.5 48.5q-4 48 -5 96t-1 99v53q0 18 0.5 42.5t1 51.5t2 53.5t3.5 47.5q4 57 32 80q14 12 34.5 17t51.5 5h230q9 0 12 -3.5t3 -11.5v-26q0 -7 -3 -11t-12 -4h-225q-16 0 -25.5 -3.5t-15.5 -9.5q-10 -10 -12 -41q-2 -36 -4 -75
t-2 -100h237q9 0 12 -3.5t3 -11.5v-26q0 -7 -3 -11t-12 -4h-237q0 -68 0.5 -113.5t3.5 -85.5q2 -31 12 -41q11 -10 41 -10h227q9 0 12 -4t3 -11v-26q0 -8 -3 -11.5t-12 -3.5h-232zM361 747q11 -6 5 -20l-10 -22q-5 -8 -9.5 -9t-15.5 3l-171 65q-20 8 -13 24l17 35q7 16 27 7
z" />
    <glyph glyph-name="Eacute" unicode="&#xc9;" horiz-adv-x="471" 
d="M183 0q-31 0 -51.5 5t-34.5 17t-21.5 31.5t-9.5 48.5q-4 48 -5 96t-1 99v53q0 18 0.5 42.5t1 51.5t2 53.5t3.5 47.5q4 57 32 80q14 12 34.5 17t51.5 5h230q9 0 12 -3.5t3 -11.5v-26q0 -7 -3 -11t-12 -4h-225q-16 0 -25.5 -3.5t-15.5 -9.5q-10 -10 -12 -41q-2 -36 -4 -75
t-2 -100h237q9 0 12 -3.5t3 -11.5v-26q0 -7 -3 -11t-12 -4h-237q0 -68 0.5 -113.5t3.5 -85.5q2 -31 12 -41q11 -10 41 -10h227q9 0 12 -4t3 -11v-26q0 -8 -3 -11.5t-12 -3.5h-232zM354 830q20 9 27 -7l17 -35q7 -16 -13 -24l-171 -65q-11 -4 -16 -3t-9 9l-10 22q-6 14 5 20z
" />
    <glyph glyph-name="Ecircumflex" unicode="&#xca;" horiz-adv-x="471" 
d="M183 0q-31 0 -51.5 5t-34.5 17t-21.5 31.5t-9.5 48.5q-4 48 -5 96t-1 99v53q0 18 0.5 42.5t1 51.5t2 53.5t3.5 47.5q4 57 32 80q14 12 34.5 17t51.5 5h230q9 0 12 -3.5t3 -11.5v-26q0 -7 -3 -11t-12 -4h-225q-16 0 -25.5 -3.5t-15.5 -9.5q-10 -10 -12 -41q-2 -36 -4 -75
t-2 -100h237q9 0 12 -3.5t3 -11.5v-26q0 -7 -3 -11t-12 -4h-237q0 -68 0.5 -113.5t3.5 -85.5q2 -31 12 -41q11 -10 41 -10h227q9 0 12 -4t3 -11v-26q0 -8 -3 -11.5t-12 -3.5h-232zM286 866q7 0 10 -1.5t8 -6.5l105 -119q11 -12 -1 -20l-23 -16q-11 -9 -22 2l-92 96h-5
l-92 -96q-11 -11 -22 -2l-23 16q-13 8 -1 20l105 119q5 5 8 6.5t10 1.5h35z" />
    <glyph glyph-name="Ecaron" unicode="&#x11a;" horiz-adv-x="471" 
d="M183 0q-31 0 -51.5 5t-34.5 17t-21.5 31.5t-9.5 48.5q-4 48 -5 96t-1 99v53q0 18 0.5 42.5t1 51.5t2 53.5t3.5 47.5q4 57 32 80q14 12 34.5 17t51.5 5h230q9 0 12 -3.5t3 -11.5v-26q0 -7 -3 -11t-12 -4h-225q-16 0 -25.5 -3.5t-15.5 -9.5q-10 -10 -12 -41q-2 -36 -4 -75
t-2 -100h237q9 0 12 -3.5t3 -11.5v-26q0 -7 -3 -11t-12 -4h-237q0 -68 0.5 -113.5t3.5 -85.5q2 -31 12 -41q11 -10 41 -10h227q9 0 12 -4t3 -11v-26q0 -8 -3 -11.5t-12 -3.5h-232zM252 700q-5 0 -9 1.5t-9 6.5l-107 119q-11 12 1 20l23 16q11 9 22 -2l92 -96h5l92 96
q11 11 22 2l23 -16q12 -8 1 -20l-107 -119q-5 -5 -9 -6.5t-9 -1.5h-31z" />
    <glyph glyph-name="Edieresis" unicode="&#xcb;" horiz-adv-x="471" 
d="M183 0q-31 0 -51.5 5t-34.5 17t-21.5 31.5t-9.5 48.5q-4 48 -5 96t-1 99v53q0 18 0.5 42.5t1 51.5t2 53.5t3.5 47.5q4 57 32 80q14 12 34.5 17t51.5 5h230q9 0 12 -3.5t3 -11.5v-26q0 -7 -3 -11t-12 -4h-225q-16 0 -25.5 -3.5t-15.5 -9.5q-10 -10 -12 -41q-2 -36 -4 -75
t-2 -100h237q9 0 12 -3.5t3 -11.5v-26q0 -7 -3 -11t-12 -4h-237q0 -68 0.5 -113.5t3.5 -85.5q2 -31 12 -41q11 -10 41 -10h227q9 0 12 -4t3 -11v-26q0 -8 -3 -11.5t-12 -3.5h-232zM187 823q20 0 32 -10t12 -29v-23q0 -20 -12 -29.5t-32 -9.5h-10q-19 0 -30.5 9.5t-11.5 29.5
v23q0 19 11.5 29t30.5 10h10zM349 823q43 0 43 -39v-23q0 -39 -43 -39h-10q-19 0 -30.5 9.5t-11.5 29.5v23q0 19 11.5 29t30.5 10h10z" />
    <glyph glyph-name="Emacron" unicode="&#x112;" horiz-adv-x="471" 
d="M183 0q-31 0 -51.5 5t-34.5 17t-21.5 31.5t-9.5 48.5q-4 48 -5 96t-1 99v53q0 18 0.5 42.5t1 51.5t2 53.5t3.5 47.5q4 57 32 80q14 12 34.5 17t51.5 5h230q9 0 12 -3.5t3 -11.5v-26q0 -7 -3 -11t-12 -4h-225q-16 0 -25.5 -3.5t-15.5 -9.5q-10 -10 -12 -41q-2 -36 -4 -75
t-2 -100h237q9 0 12 -3.5t3 -11.5v-26q0 -7 -3 -11t-12 -4h-237q0 -68 0.5 -113.5t3.5 -85.5q2 -31 12 -41q11 -10 41 -10h227q9 0 12 -4t3 -11v-26q0 -8 -3 -11.5t-12 -3.5h-232zM376 792q9 0 12 -4t3 -11v-35q0 -10 -5 -11.5t-10 -1.5h-225q-9 0 -12 3.5t-3 11.5v33
q0 7 3 11t12 4h225z" />
    <glyph glyph-name="Ebreve" unicode="&#x114;" horiz-adv-x="471" 
d="M183 0q-31 0 -51.5 5t-34.5 17t-21.5 31.5t-9.5 48.5q-4 48 -5 96t-1 99v53q0 18 0.5 42.5t1 51.5t2 53.5t3.5 47.5q4 57 32 80q14 12 34.5 17t51.5 5h230q9 0 12 -3.5t3 -11.5v-26q0 -7 -3 -11t-12 -4h-225q-16 0 -25.5 -3.5t-15.5 -9.5q-10 -10 -12 -41q-2 -36 -4 -75
t-2 -100h237q9 0 12 -3.5t3 -11.5v-26q0 -7 -3 -11t-12 -4h-237q0 -68 0.5 -113.5t3.5 -85.5q2 -31 12 -41q11 -10 41 -10h227q9 0 12 -4t3 -11v-26q0 -8 -3 -11.5t-12 -3.5h-232zM362 823q2 8 5.5 9.5t13.5 -1.5l28 -8q13 -4 9 -18q-15 -55 -54.5 -82.5t-90.5 -27.5
t-90.5 27.5t-54.5 82.5q-4 14 9 18l28 8q10 3 13.5 1.5t5.5 -9.5q12 -39 34.5 -56t54.5 -17t55 17.5t34 55.5z" />
    <glyph glyph-name="Edotaccent" unicode="&#x116;" horiz-adv-x="471" 
d="M183 0q-31 0 -51.5 5t-34.5 17t-21.5 31.5t-9.5 48.5q-4 48 -5 96t-1 99v53q0 18 0.5 42.5t1 51.5t2 53.5t3.5 47.5q4 57 32 80q14 12 34.5 17t51.5 5h230q9 0 12 -3.5t3 -11.5v-26q0 -7 -3 -11t-12 -4h-225q-16 0 -25.5 -3.5t-15.5 -9.5q-10 -10 -12 -41q-2 -36 -4 -75
t-2 -100h237q9 0 12 -3.5t3 -11.5v-26q0 -7 -3 -11t-12 -4h-237q0 -68 0.5 -113.5t3.5 -85.5q2 -31 12 -41q11 -10 41 -10h227q9 0 12 -4t3 -11v-26q0 -8 -3 -11.5t-12 -3.5h-232zM213 770q0 25 17.5 42.5t42.5 17.5t42.5 -17.5t17.5 -42.5t-17.5 -42.5t-42.5 -17.5
t-42.5 17.5t-17.5 42.5z" />
    <glyph glyph-name="Eogonek" unicode="&#x118;" horiz-adv-x="471" 
d="M183 0q-31 0 -51.5 5t-34.5 17t-21.5 31.5t-9.5 48.5q-4 48 -5 96t-1 99v53q0 18 0.5 42.5t1 51.5t2 53.5t3.5 47.5q4 57 32 80q14 12 34.5 17t51.5 5h230q9 0 12 -3.5t3 -11.5v-26q0 -7 -3 -11t-12 -4h-225q-16 0 -25.5 -3.5t-15.5 -9.5q-10 -10 -12 -41q-2 -36 -4 -75
t-2 -100h237q9 0 12 -3.5t3 -11.5v-26q0 -7 -3 -11t-12 -4h-237q0 -68 0.5 -113.5t3.5 -85.5q2 -31 12 -41q11 -10 41 -10h227q9 0 12 -4t3 -11v-19q0 -9 -3 -14t-14 -14q-35 -29 -51 -52.5t-16 -49.5q0 -36 43 -36q13 0 25.5 3t22.5 8q11 5 14 -5l6 -28q3 -10 -8 -15
q-16 -7 -32.5 -11t-41.5 -4q-45 0 -70.5 18.5t-25.5 56.5q0 39 25 70t57 51h-178z" />
    <glyph glyph-name="Gcircumflex" unicode="&#x11c;" horiz-adv-x="557" 
d="M480 632q15 -5 10 -19l-9 -27q-3 -9 -8 -10.5t-16 2.5q-34 11 -66.5 16.5t-77.5 5.5q-43 0 -78 -13.5t-59 -42.5q-26 -32 -37.5 -79t-11.5 -127v-28q0 -78 10 -127t36 -81q23 -29 56.5 -42t84.5 -13q35 0 61.5 2t49.5 7q10 2 10 13v216h-90q-15 0 -15 15v31q0 13 15 13
h145q14 0 14 -14v-291q0 -11 -4.5 -17.5t-16.5 -9.5q-42 -11 -84 -16t-91 -5q-70 0 -118.5 18t-78.5 55.5t-43.5 95.5t-13.5 137v53q0 150 62 228t199 78q47 0 85.5 -5.5t79.5 -18.5zM333 866q7 0 10 -1.5t8 -6.5l105 -119q11 -12 -1 -20l-23 -16q-11 -9 -22 2l-92 96h-5
l-92 -96q-11 -11 -22 -2l-23 16q-13 8 -1 20l105 119q5 5 8 6.5t10 1.5h35z" />
    <glyph glyph-name="Gbreve" unicode="&#x11e;" horiz-adv-x="557" 
d="M480 632q15 -5 10 -19l-9 -27q-3 -9 -8 -10.5t-16 2.5q-34 11 -66.5 16.5t-77.5 5.5q-43 0 -78 -13.5t-59 -42.5q-26 -32 -37.5 -79t-11.5 -127v-28q0 -78 10 -127t36 -81q23 -29 56.5 -42t84.5 -13q35 0 61.5 2t49.5 7q10 2 10 13v216h-90q-15 0 -15 15v31q0 13 15 13
h145q14 0 14 -14v-291q0 -11 -4.5 -17.5t-16.5 -9.5q-42 -11 -84 -16t-91 -5q-70 0 -118.5 18t-78.5 55.5t-43.5 95.5t-13.5 137v53q0 150 62 228t199 78q47 0 85.5 -5.5t79.5 -18.5zM400 823q2 8 5.5 9.5t13.5 -1.5l28 -8q13 -4 9 -18q-15 -55 -54.5 -82.5t-90.5 -27.5
t-90.5 27.5t-54.5 82.5q-4 14 9 18l28 8q10 3 13.5 1.5t5.5 -9.5q12 -39 34.5 -56t54.5 -17t55 17.5t34 55.5z" />
    <glyph glyph-name="Gdotaccent" unicode="&#x120;" horiz-adv-x="557" 
d="M480 632q15 -5 10 -19l-9 -27q-3 -9 -8 -10.5t-16 2.5q-34 11 -66.5 16.5t-77.5 5.5q-43 0 -78 -13.5t-59 -42.5q-26 -32 -37.5 -79t-11.5 -127v-28q0 -78 10 -127t36 -81q23 -29 56.5 -42t84.5 -13q35 0 61.5 2t49.5 7q10 2 10 13v216h-90q-15 0 -15 15v31q0 13 15 13
h145q14 0 14 -14v-291q0 -11 -4.5 -17.5t-16.5 -9.5q-42 -11 -84 -16t-91 -5q-70 0 -118.5 18t-78.5 55.5t-43.5 95.5t-13.5 137v53q0 150 62 228t199 78q47 0 85.5 -5.5t79.5 -18.5zM253 770q0 25 17.5 42.5t42.5 17.5t42.5 -17.5t17.5 -42.5t-17.5 -42.5t-42.5 -17.5
t-42.5 17.5t-17.5 42.5z" />
    <glyph glyph-name="Gcommaaccent" unicode="&#x122;" horiz-adv-x="557" 
d="M480 632q15 -5 10 -19l-9 -27q-3 -9 -8 -10.5t-16 2.5q-34 11 -66.5 16.5t-77.5 5.5q-43 0 -78 -13.5t-59 -42.5q-26 -32 -37.5 -79t-11.5 -127v-28q0 -78 10 -127t36 -81q23 -29 56.5 -42t84.5 -13q35 0 61.5 2t49.5 7q10 2 10 13v216h-90q-15 0 -15 15v31q0 13 15 13
h145q14 0 14 -14v-291q0 -11 -4.5 -17.5t-16.5 -9.5q-42 -11 -84 -16t-91 -5q-70 0 -118.5 18t-78.5 55.5t-43.5 95.5t-13.5 137v53q0 150 62 228t199 78q47 0 85.5 -5.5t79.5 -18.5zM323 -69q17 0 26 -8.5t9 -29.5v-18q0 -69 -62 -130q-9 -9 -17 -3l-14 12q-8 7 -2 14
q8 10 19 24t17 27q8 15 -8 23q-12 6 -17.5 13.5t-5.5 24.5v18q0 17 9.5 25t24.5 8h21z" />
    <glyph glyph-name="Hcircumflex" unicode="&#x124;" horiz-adv-x="593" 
d="M522 17q0 -17 -16 -17h-38q-15 0 -15 17v287h-313v-287q0 -17 -16 -17h-36q-17 0 -17 17v613q0 17 16 17h37q16 0 16 -17v-268h313v268q0 17 16 17h37q16 0 16 -17v-613zM313 866q7 0 10 -1.5t8 -6.5l105 -119q11 -12 -1 -20l-23 -16q-11 -9 -22 2l-92 96h-5l-92 -96
q-11 -11 -22 -2l-23 16q-13 8 -1 20l105 119q5 5 8 6.5t10 1.5h35z" />
    <glyph glyph-name="Hbar" unicode="&#x126;" horiz-adv-x="593" 
d="M522 530h41q9 0 12 -4t3 -11v-30q0 -10 -5 -11.5t-10 -1.5h-41v-455q0 -17 -16 -17h-38q-15 0 -15 17v287h-313v-287q0 -17 -16 -17h-36q-17 0 -17 17v455h-44q-9 0 -12 3.5t-3 11.5v28q0 7 3 11t12 4h44v100q0 17 16 17h37q16 0 16 -17v-100h313v100q0 17 16 17h37
q16 0 16 -17v-100zM453 362v110h-313v-110h313z" />
    <glyph glyph-name="Igrave" unicode="&#xcc;" horiz-adv-x="221" 
d="M128 647q17 0 17 -17v-613q0 -17 -17 -17h-35q-17 0 -17 17v613q0 17 16 17h36zM167 747q11 -6 5 -20l-10 -22q-5 -8 -9.5 -9t-15.5 3l-171 65q-20 8 -13 24l17 35q7 16 27 7z" />
    <glyph glyph-name="Iacute" unicode="&#xcd;" horiz-adv-x="221" 
d="M128 647q17 0 17 -17v-613q0 -17 -17 -17h-35q-17 0 -17 17v613q0 17 16 17h36zM218 830q20 9 27 -7l17 -35q7 -16 -13 -24l-171 -65q-11 -4 -16 -3t-9 9l-10 22q-6 14 5 20z" />
    <glyph glyph-name="Icircumflex" unicode="&#xce;" horiz-adv-x="221" 
d="M128 647q17 0 17 -17v-613q0 -17 -17 -17h-35q-17 0 -17 17v613q0 17 16 17h36zM128 866q7 0 10 -1.5t8 -6.5l105 -119q11 -12 -1 -20l-23 -16q-11 -9 -22 2l-92 96h-5l-92 -96q-11 -11 -22 -2l-23 16q-13 8 -1 20l105 119q5 5 8 6.5t10 1.5h35z" />
    <glyph glyph-name="Itilde" unicode="&#x128;" horiz-adv-x="221" 
d="M128 647q17 0 17 -17v-613q0 -17 -17 -17h-35q-17 0 -17 17v613q0 17 16 17h36zM-48 733q-7 4 -3 13q20 40 46.5 60.5t55.5 20.5q17 0 31 -5t28 -15l28 -20q12 -9 19.5 -12.5t16.5 -3.5q23 0 53 45q6 10 15 4l26 -16q10 -6 5 -15q-20 -36 -47 -57.5t-56 -21.5
q-32 0 -58 19l-28 20q-11 8 -18.5 12t-18.5 4q-14 0 -26.5 -10.5t-26.5 -34.5q-4 -7 -7.5 -7t-9.5 4z" />
    <glyph glyph-name="Idieresis" unicode="&#xcf;" horiz-adv-x="221" 
d="M128 647q17 0 17 -17v-613q0 -17 -17 -17h-35q-17 0 -17 17v613q0 17 16 17h36zM35 823q20 0 32 -10t12 -29v-23q0 -20 -12 -29.5t-32 -9.5h-10q-19 0 -30.5 9.5t-11.5 29.5v23q0 19 11.5 29t30.5 10h10zM197 823q43 0 43 -39v-23q0 -39 -43 -39h-10q-19 0 -30.5 9.5
t-11.5 29.5v23q0 19 11.5 29t30.5 10h10z" />
    <glyph glyph-name="Imacron" unicode="&#x12a;" horiz-adv-x="221" 
d="M128 647q17 0 17 -17v-613q0 -17 -17 -17h-35q-17 0 -17 17v613q0 17 16 17h36zM223 792q9 0 12 -4t3 -11v-35q0 -10 -5 -11.5t-10 -1.5h-225q-9 0 -12 3.5t-3 11.5v33q0 7 3 11t12 4h225z" />
    <glyph glyph-name="Ibreve" unicode="&#x12c;" horiz-adv-x="221" 
d="M128 647q17 0 17 -17v-613q0 -17 -17 -17h-35q-17 0 -17 17v613q0 17 16 17h36zM200 823q2 8 5.5 9.5t13.5 -1.5l28 -8q13 -4 9 -18q-15 -55 -54.5 -82.5t-90.5 -27.5t-90.5 27.5t-54.5 82.5q-4 14 9 18l28 8q10 3 13.5 1.5t5.5 -9.5q12 -39 34.5 -56t54.5 -17t55 17.5
t34 55.5z" />
    <glyph glyph-name="Idotaccent" unicode="&#x130;" horiz-adv-x="221" 
d="M128 647q17 0 17 -17v-613q0 -17 -17 -17h-35q-17 0 -17 17v613q0 17 16 17h36zM50 770q0 25 17.5 42.5t42.5 17.5t42.5 -17.5t17.5 -42.5t-17.5 -42.5t-42.5 -17.5t-42.5 17.5t-17.5 42.5z" />
    <glyph glyph-name="Iogonek" unicode="&#x12e;" horiz-adv-x="221" 
d="M76 630q0 17 16 17h39q10 0 12 -6t2 -11v-613q0 -10 -6 -15q-23 -19 -38 -34t-24 -28t-13 -24.5t-4 -23.5q0 -36 43 -36q13 0 25.5 3t22.5 8q11 5 14 -5l6 -28q3 -10 -8 -15q-16 -7 -32.5 -11t-41.5 -4q-45 0 -70.5 18.5t-25.5 56.5q0 42 25 73.5t58 50.5v627z" />
    <glyph glyph-name="IJ" unicode="&#x132;" horiz-adv-x="527" 
d="M128 647q17 0 17 -17v-613q0 -17 -17 -17h-35q-17 0 -17 17v613q0 17 16 17h36zM451 196q0 -39 -4 -68t-14 -52q-15 -40 -50.5 -58t-86.5 -18h-43q-14 0 -14 13v35q0 13 12 13h42q36 0 54 12.5t26 34.5q7 20 8 41t1 53v428q0 17 16 17h36q17 0 17 -17v-434z" />
    <glyph glyph-name="Jcircumflex" unicode="&#x134;" horiz-adv-x="306" 
d="M230 196q0 -39 -4 -68t-14 -52q-15 -40 -50.5 -58t-86.5 -18h-43q-14 0 -14 13v35q0 13 12 13h42q36 0 54 12.5t26 34.5q7 20 8 41t1 53v428q0 17 16 17h36q17 0 17 -17v-434zM213 866q7 0 10 -1.5t8 -6.5l105 -119q11 -12 -1 -20l-23 -16q-11 -9 -22 2l-92 96h-5
l-92 -96q-11 -11 -22 -2l-23 16q-13 8 -1 20l105 119q5 5 8 6.5t10 1.5h35z" />
    <glyph glyph-name="Kcommaaccent" unicode="&#x136;" horiz-adv-x="503" 
d="M140 17q0 -17 -16 -17h-37q-16 0 -16 17v613q0 17 16 17h37q16 0 16 -17v-268h66q17 0 28 15l173 256q10 14 26 14h40q10 0 13 -4.5t-2 -12.5l-188 -275q-3 -5 -5 -8t-2 -8t2 -8t4 -7l188 -307q5 -7 2 -12t-13 -5h-48q-12 0 -20 14l-165 277q-6 10 -14.5 11.5t-16.5 1.5
h-68v-287zM260 -69q17 0 26 -8.5t9 -29.5v-18q0 -69 -62 -130q-9 -9 -17 -3l-14 12q-8 7 -2 14q8 10 19 24t17 27q8 15 -8 23q-12 6 -17.5 13.5t-5.5 24.5v18q0 17 9.5 25t24.5 8h21z" />
    <glyph glyph-name="Lacute" unicode="&#x139;" horiz-adv-x="378" 
d="M140 90q0 -20 8 -27t31 -7h163q15 0 15 -13v-30q0 -13 -15 -13h-180q-48 0 -69.5 19t-21.5 61v550q0 17 16 17h36q17 0 17 -17v-540zM225 830q20 9 27 -7l17 -35q7 -16 -13 -24l-171 -65q-11 -4 -16 -3t-9 9l-10 22q-6 14 5 20z" />
    <glyph glyph-name="Lcaron" unicode="&#x13d;" horiz-adv-x="378" 
d="M140 90q0 -20 8 -27t31 -7h163q15 0 15 -13v-30q0 -13 -15 -13h-180q-48 0 -69.5 19t-21.5 61v550q0 17 16 17h36q17 0 17 -17v-540zM308 648q17 0 26 -8.5t9 -29.5v-18q0 -69 -62 -130q-9 -9 -17 -3l-14 12q-8 7 -2 14q8 10 19 24t17 27q8 15 -8 23q-12 6 -17.5 13.5
t-5.5 24.5v18q0 17 9.5 25t24.5 8h21z" />
    <glyph glyph-name="Lcommaaccent" unicode="&#x13b;" horiz-adv-x="378" 
d="M140 90q0 -20 8 -27t31 -7h163q15 0 15 -13v-30q0 -13 -15 -13h-180q-48 0 -69.5 19t-21.5 61v550q0 17 16 17h36q17 0 17 -17v-540zM224 -69q17 0 26 -8.5t9 -29.5v-18q0 -69 -62 -130q-9 -9 -17 -3l-14 12q-8 7 -2 14q8 10 19 24t17 27q8 15 -8 23q-12 6 -17.5 13.5
t-5.5 24.5v18q0 17 9.5 25t24.5 8h21z" />
    <glyph glyph-name="Lslash" unicode="&#x141;" horiz-adv-x="378" 
d="M140 388l93 62q7 5 12 2.5t5 -13.5v-35q0 -9 -2.5 -15t-12.5 -13l-95 -63v-223q0 -20 8 -27t31 -7h163q15 0 15 -13v-30q0 -13 -15 -13h-180q-48 0 -69.5 19t-21.5 61v188l-71 -47q-17 -10 -17 11v35q0 9 2.5 15t12.5 13l73 48v287q0 17 16 17h36q17 0 17 -17v-242z" />
    <glyph glyph-name="Ldot" unicode="&#x13f;" horiz-adv-x="378" 
d="M140 90q0 -20 8 -27t31 -7h163q15 0 15 -13v-30q0 -13 -15 -13h-180q-48 0 -69.5 19t-21.5 61v550q0 17 16 17h36q17 0 17 -17v-540zM232 355q0 25 17.5 42.5t42.5 17.5t42.5 -17.5t17.5 -42.5t-17.5 -42.5t-42.5 -17.5t-42.5 17.5t-17.5 42.5z" />
    <glyph glyph-name="Nacute" unicode="&#x143;" horiz-adv-x="603" 
d="M142 580h-7v-563q0 -17 -14 -17h-36q-14 0 -14 17v600q0 18 7 24t26 6h49q21 0 29.5 -8t16.5 -23l262 -551h7v565q0 17 14 17h36q14 0 14 -17v-600q0 -18 -7 -24t-26 -6h-49q-21 0 -29.5 8t-16.5 23zM401 830q20 9 27 -7l17 -35q7 -16 -13 -24l-171 -65q-11 -4 -16 -3
t-9 9l-10 22q-6 14 5 20z" />
    <glyph glyph-name="Ncaron" unicode="&#x147;" horiz-adv-x="603" 
d="M142 580h-7v-563q0 -17 -14 -17h-36q-14 0 -14 17v600q0 18 7 24t26 6h49q21 0 29.5 -8t16.5 -23l262 -551h7v565q0 17 14 17h36q14 0 14 -17v-600q0 -18 -7 -24t-26 -6h-49q-21 0 -29.5 8t-16.5 23zM293 700q-5 0 -9 1.5t-9 6.5l-107 119q-11 12 1 20l23 16q11 9 22 -2
l92 -96h5l92 96q11 11 22 2l23 -16q12 -8 1 -20l-107 -119q-5 -5 -9 -6.5t-9 -1.5h-31z" />
    <glyph glyph-name="Ntilde" unicode="&#xd1;" horiz-adv-x="603" 
d="M142 580h-7v-563q0 -17 -14 -17h-36q-14 0 -14 17v600q0 18 7 24t26 6h49q21 0 29.5 -8t16.5 -23l262 -551h7v565q0 17 14 17h36q14 0 14 -17v-600q0 -18 -7 -24t-26 -6h-49q-21 0 -29.5 8t-16.5 23zM145 733q-7 4 -3 13q20 40 46.5 60.5t55.5 20.5q17 0 31 -5t28 -15
l28 -20q12 -9 19.5 -12.5t16.5 -3.5q23 0 53 45q6 10 15 4l26 -16q10 -6 5 -15q-20 -36 -47 -57.5t-56 -21.5q-32 0 -58 19l-28 20q-11 8 -18.5 12t-18.5 4q-14 0 -26.5 -10.5t-26.5 -34.5q-4 -7 -7.5 -7t-9.5 4z" />
    <glyph glyph-name="Ncommaaccent" unicode="&#x145;" horiz-adv-x="603" 
d="M142 580h-7v-563q0 -17 -14 -17h-36q-14 0 -14 17v600q0 18 7 24t26 6h49q21 0 29.5 -8t16.5 -23l262 -551h7v565q0 17 14 17h36q14 0 14 -17v-600q0 -18 -7 -24t-26 -6h-49q-21 0 -29.5 8t-16.5 23zM326 -69q17 0 26 -8.5t9 -29.5v-18q0 -69 -62 -130q-9 -9 -17 -3
l-14 12q-8 7 -2 14q8 10 19 24t17 27q8 15 -8 23q-12 6 -17.5 13.5t-5.5 24.5v18q0 17 9.5 25t24.5 8h21z" />
    <glyph glyph-name="Eng" unicode="&#x14a;" horiz-adv-x="603" 
d="M532 -16q0 -46 -8 -78.5t-25.5 -53t-45.5 -30t-69 -9.5h-37q-12 0 -12 13v33q0 13 12 13h42q42 0 60.5 24.5t18.5 85.5v18h-18q-21 0 -29.5 8t-16.5 23l-262 549h-7v-563q0 -17 -14 -17h-36q-14 0 -14 17v600q0 18 7 24t26 6h49q21 0 29.5 -8t16.5 -23l262 -551h7v565
q0 17 14 17h36q14 0 14 -17v-646z" />
    <glyph glyph-name="Ograve" unicode="&#xd2;" horiz-adv-x="582" 
d="M127 310q0 -70 8 -126.5t37 -90.5q19 -22 47.5 -34t71.5 -12q47 0 77 13.5t48 38.5q25 35 32 90t7 121v27q0 63 -6 119.5t-33 92.5q-18 24 -48 37.5t-77 13.5q-45 0 -75 -13.5t-48 -37.5q-26 -35 -33.5 -89.5t-7.5 -122.5v-27zM528 297q0 -83 -13.5 -143.5t-47.5 -98.5
q-28 -32 -70.5 -48t-105.5 -16q-59 0 -100 14.5t-69 42.5q-38 38 -53 100t-15 149v52q0 84 14 145.5t49 99.5q28 31 70.5 46.5t103.5 15.5t103.5 -15.5t70.5 -46.5q35 -38 49 -99t14 -146v-52zM391 747q11 -6 5 -20l-10 -22q-5 -8 -9.5 -9t-15.5 3l-171 65q-20 8 -13 24
l17 35q7 16 27 7z" />
    <glyph glyph-name="Oacute" unicode="&#xd3;" horiz-adv-x="582" 
d="M127 310q0 -70 8 -126.5t37 -90.5q19 -22 47.5 -34t71.5 -12q47 0 77 13.5t48 38.5q25 35 32 90t7 121v27q0 63 -6 119.5t-33 92.5q-18 24 -48 37.5t-77 13.5q-45 0 -75 -13.5t-48 -37.5q-26 -35 -33.5 -89.5t-7.5 -122.5v-27zM528 297q0 -83 -13.5 -143.5t-47.5 -98.5
q-28 -32 -70.5 -48t-105.5 -16q-59 0 -100 14.5t-69 42.5q-38 38 -53 100t-15 149v52q0 84 14 145.5t49 99.5q28 31 70.5 46.5t103.5 15.5t103.5 -15.5t70.5 -46.5q35 -38 49 -99t14 -146v-52zM378 830q20 9 27 -7l17 -35q7 -16 -13 -24l-171 -65q-11 -4 -16 -3t-9 9l-10 22
q-6 14 5 20z" />
    <glyph glyph-name="Ocircumflex" unicode="&#xd4;" horiz-adv-x="582" 
d="M127 310q0 -70 8 -126.5t37 -90.5q19 -22 47.5 -34t71.5 -12q47 0 77 13.5t48 38.5q25 35 32 90t7 121v27q0 63 -6 119.5t-33 92.5q-18 24 -48 37.5t-77 13.5q-45 0 -75 -13.5t-48 -37.5q-26 -35 -33.5 -89.5t-7.5 -122.5v-27zM528 297q0 -83 -13.5 -143.5t-47.5 -98.5
q-28 -32 -70.5 -48t-105.5 -16q-59 0 -100 14.5t-69 42.5q-38 38 -53 100t-15 149v52q0 84 14 145.5t49 99.5q28 31 70.5 46.5t103.5 15.5t103.5 -15.5t70.5 -46.5q35 -38 49 -99t14 -146v-52zM311 866q7 0 10 -1.5t8 -6.5l105 -119q11 -12 -1 -20l-23 -16q-11 -9 -22 2
l-92 96h-5l-92 -96q-11 -11 -22 -2l-23 16q-13 8 -1 20l105 119q5 5 8 6.5t10 1.5h35z" />
    <glyph glyph-name="Otilde" unicode="&#xd5;" horiz-adv-x="582" 
d="M127 310q0 -70 8 -126.5t37 -90.5q19 -22 47.5 -34t71.5 -12q47 0 77 13.5t48 38.5q25 35 32 90t7 121v27q0 63 -6 119.5t-33 92.5q-18 24 -48 37.5t-77 13.5q-45 0 -75 -13.5t-48 -37.5q-26 -35 -33.5 -89.5t-7.5 -122.5v-27zM528 297q0 -83 -13.5 -143.5t-47.5 -98.5
q-28 -32 -70.5 -48t-105.5 -16q-59 0 -100 14.5t-69 42.5q-38 38 -53 100t-15 149v52q0 84 14 145.5t49 99.5q28 31 70.5 46.5t103.5 15.5t103.5 -15.5t70.5 -46.5q35 -38 49 -99t14 -146v-52zM135 733q-7 4 -3 13q20 40 46.5 60.5t55.5 20.5q17 0 31 -5t28 -15l28 -20
q12 -9 19.5 -12.5t16.5 -3.5q23 0 53 45q6 10 15 4l26 -16q10 -6 5 -15q-20 -36 -47 -57.5t-56 -21.5q-32 0 -58 19l-28 20q-11 8 -18.5 12t-18.5 4q-14 0 -26.5 -10.5t-26.5 -34.5q-4 -7 -7.5 -7t-9.5 4z" />
    <glyph glyph-name="Odieresis" unicode="&#xd6;" horiz-adv-x="582" 
d="M127 310q0 -70 8 -126.5t37 -90.5q19 -22 47.5 -34t71.5 -12q47 0 77 13.5t48 38.5q25 35 32 90t7 121v27q0 63 -6 119.5t-33 92.5q-18 24 -48 37.5t-77 13.5q-45 0 -75 -13.5t-48 -37.5q-26 -35 -33.5 -89.5t-7.5 -122.5v-27zM528 297q0 -83 -13.5 -143.5t-47.5 -98.5
q-28 -32 -70.5 -48t-105.5 -16q-59 0 -100 14.5t-69 42.5q-38 38 -53 100t-15 149v52q0 84 14 145.5t49 99.5q28 31 70.5 46.5t103.5 15.5t103.5 -15.5t70.5 -46.5q35 -38 49 -99t14 -146v-52zM216 823q20 0 32 -10t12 -29v-23q0 -20 -12 -29.5t-32 -9.5h-10
q-19 0 -30.5 9.5t-11.5 29.5v23q0 19 11.5 29t30.5 10h10zM378 823q43 0 43 -39v-23q0 -39 -43 -39h-10q-19 0 -30.5 9.5t-11.5 29.5v23q0 19 11.5 29t30.5 10h10z" />
    <glyph glyph-name="Omacron" unicode="&#x14c;" horiz-adv-x="582" 
d="M127 310q0 -70 8 -126.5t37 -90.5q19 -22 47.5 -34t71.5 -12q47 0 77 13.5t48 38.5q25 35 32 90t7 121v27q0 63 -6 119.5t-33 92.5q-18 24 -48 37.5t-77 13.5q-45 0 -75 -13.5t-48 -37.5q-26 -35 -33.5 -89.5t-7.5 -122.5v-27zM528 297q0 -83 -13.5 -143.5t-47.5 -98.5
q-28 -32 -70.5 -48t-105.5 -16q-59 0 -100 14.5t-69 42.5q-38 38 -53 100t-15 149v52q0 84 14 145.5t49 99.5q28 31 70.5 46.5t103.5 15.5t103.5 -15.5t70.5 -46.5q35 -38 49 -99t14 -146v-52zM403 792q9 0 12 -4t3 -11v-35q0 -10 -5 -11.5t-10 -1.5h-225q-9 0 -12 3.5
t-3 11.5v33q0 7 3 11t12 4h225z" />
    <glyph glyph-name="Obreve" unicode="&#x14e;" horiz-adv-x="582" 
d="M127 310q0 -70 8 -126.5t37 -90.5q19 -22 47.5 -34t71.5 -12q47 0 77 13.5t48 38.5q25 35 32 90t7 121v27q0 63 -6 119.5t-33 92.5q-18 24 -48 37.5t-77 13.5q-45 0 -75 -13.5t-48 -37.5q-26 -35 -33.5 -89.5t-7.5 -122.5v-27zM528 297q0 -83 -13.5 -143.5t-47.5 -98.5
q-28 -32 -70.5 -48t-105.5 -16q-59 0 -100 14.5t-69 42.5q-38 38 -53 100t-15 149v52q0 84 14 145.5t49 99.5q28 31 70.5 46.5t103.5 15.5t103.5 -15.5t70.5 -46.5q35 -38 49 -99t14 -146v-52zM380 823q2 8 5.5 9.5t13.5 -1.5l28 -8q13 -4 9 -18q-15 -55 -54.5 -82.5
t-90.5 -27.5t-90.5 27.5t-54.5 82.5q-4 14 9 18l28 8q10 3 13.5 1.5t5.5 -9.5q12 -39 34.5 -56t54.5 -17t55 17.5t34 55.5z" />
    <glyph glyph-name="Ohungarumlaut" unicode="&#x150;" horiz-adv-x="582" 
d="M127 310q0 -70 8 -126.5t37 -90.5q19 -22 47.5 -34t71.5 -12q47 0 77 13.5t48 38.5q25 35 32 90t7 121v27q0 63 -6 119.5t-33 92.5q-18 24 -48 37.5t-77 13.5q-45 0 -75 -13.5t-48 -37.5q-26 -35 -33.5 -89.5t-7.5 -122.5v-27zM528 297q0 -83 -13.5 -143.5t-47.5 -98.5
q-28 -32 -70.5 -48t-105.5 -16q-59 0 -100 14.5t-69 42.5q-38 38 -53 100t-15 149v52q0 84 14 145.5t49 99.5q28 31 70.5 46.5t103.5 15.5t103.5 -15.5t70.5 -46.5q35 -38 49 -99t14 -146v-52zM292 850q8 7 14 5.5t13 -9.5l21 -26q11 -15 -7 -27l-147 -99q-8 -5 -12.5 -4.5
t-10.5 8.5l-14 18q-5 7 -3.5 12.5t6.5 10.5zM496 850q8 7 14 5.5t13 -9.5l21 -26q11 -15 -7 -27l-147 -99q-8 -5 -12.5 -4.5t-10.5 8.5l-14 18q-5 7 -3.5 12.5t6.5 10.5z" />
    <glyph glyph-name="Oslash" unicode="&#xd8;" horiz-adv-x="582" 
d="M528 297q0 -83 -13.5 -143.5t-47.5 -98.5q-28 -32 -70.5 -48t-105.5 -16q-44 0 -77 8t-59 23l-34 -61q-7 -15 -20 -7l-20 11q-12 7 -4 20l38 70q-34 38 -47.5 98.5t-13.5 143.5v52q0 84 14 145.5t49 99.5q28 31 70.5 46.5t103.5 15.5q85 0 138 -32l34 62q7 15 20 7
l20 -11q12 -7 5 -20l-40 -72q33 -38 46.5 -98.5t13.5 -142.5v-52zM127 310q0 -57 4.5 -104t21.5 -82l244 442q-37 31 -106 31q-45 0 -75 -13.5t-48 -37.5q-26 -35 -33.5 -88t-7.5 -121v-27zM455 337q0 54 -4 101.5t-21 82.5l-243 -440q18 -15 43.5 -23t60.5 -8q47 0 77 13.5
t48 38.5q25 35 32 88.5t7 119.5v27z" />
    <glyph glyph-name="Oslashacute" unicode="&#x1fe;" horiz-adv-x="582" 
d="M371 830q20 9 27 -7l17 -35q7 -16 -13 -24l-171 -65q-11 -4 -16 -3t-9 9l-10 22q-6 14 5 20zM528 297q0 -83 -13.5 -143.5t-47.5 -98.5q-28 -32 -70.5 -48t-105.5 -16q-44 0 -77 8t-59 23l-34 -61q-7 -15 -20 -7l-20 11q-12 7 -4 20l38 70q-34 38 -47.5 98.5t-13.5 143.5
v52q0 84 14 145.5t49 99.5q28 31 70.5 46.5t103.5 15.5q85 0 138 -32l34 62q7 15 20 7l20 -11q12 -7 5 -20l-40 -72q33 -38 46.5 -98.5t13.5 -142.5v-52zM127 310q0 -57 4.5 -104t21.5 -82l244 442q-37 31 -106 31q-45 0 -75 -13.5t-48 -37.5q-26 -35 -33.5 -88t-7.5 -121
v-27zM455 337q0 54 -4 101.5t-21 82.5l-243 -440q18 -15 43.5 -23t60.5 -8q47 0 77 13.5t48 38.5q25 35 32 88.5t7 119.5v27z" />
    <glyph glyph-name="OE" unicode="&#x152;" horiz-adv-x="834" 
d="M450 612q4 7 12 13q14 12 34.5 17t51.5 5h230q9 0 12 -3.5t3 -11.5v-29q0 -7 -3 -11t-12 -4h-225q-30 0 -41 -10q-12 -12 -12 -41v-173h244q9 0 12 -3.5t3 -11.5v-29q0 -7 -3 -11t-12 -4h-244v-195q0 -29 12 -41q11 -10 41 -10h225q9 0 12 -4t3 -11v-29q0 -8 -3 -11.5
t-12 -3.5h-230q-31 0 -51.5 5t-34.5 17q-11 9 -17 19q-24 -21 -65 -35.5t-89 -14.5q-59 0 -100 14.5t-69 42.5q-38 38 -53 100t-15 149v52q0 84 14 145.5t49 99.5q28 31 70.5 46.5t103.5 15.5q49 0 87 -11.5t72 -32.5zM415 567q-24 14 -53 22t-71 8q-45 0 -75 -13.5
t-48 -37.5q-26 -35 -33.5 -88t-7.5 -121v-27q0 -70 8 -125t37 -89q19 -22 47.5 -34t71.5 -12q35 0 67 8t57 25q9 6 11.5 11.5t2.5 19.5v424q0 13 -3 18.5t-11 10.5z" />
    <glyph glyph-name="Thorn" unicode="&#xde;" horiz-adv-x="503" 
d="M215 553q49 0 94.5 -8.5t80.5 -30t55.5 -59.5t20.5 -96v-19q0 -96 -57.5 -145.5t-167.5 -49.5q-26 0 -48.5 0.5t-52.5 2.5v-131q0 -17 -16 -17h-39q-14 0 -14 17v622q0 17 16 17h39q14 0 14 -17v-89q20 2 36 2.5t39 0.5zM219 494q-17 0 -38 -1t-41 -3v-283q46 -3 92 -3
q80 0 120.5 30.5t40.5 110.5v13q0 40 -13 66.5t-36 42t-55 21.5t-70 6z" />
    <glyph glyph-name="Racute" unicode="&#x154;" 
d="M71 624q0 18 18 21q29 5 62 8t75 3q112 0 171.5 -42.5t59.5 -135.5v-21q0 -65 -32 -108.5t-92 -59.5l164 -274q9 -15 -8 -15h-52q-11 0 -17 9l-155 268q-9 -1 -18 -1h-19h-46t-42 1v-260q0 -17 -16 -17h-36q-17 0 -17 17v607zM140 334q20 -1 45.5 -1.5t53.5 -0.5
q75 0 110 30t35 101v13q0 69 -37 96.5t-120 27.5q-22 0 -40 -1t-32 -3q-10 -2 -12.5 -5t-2.5 -13v-244zM346 830q20 9 27 -7l17 -35q7 -16 -13 -24l-171 -65q-11 -4 -16 -3t-9 9l-10 22q-6 14 5 20z" />
    <glyph glyph-name="Rcaron" unicode="&#x158;" 
d="M71 624q0 18 18 21q29 5 62 8t75 3q112 0 171.5 -42.5t59.5 -135.5v-21q0 -65 -32 -108.5t-92 -59.5l164 -274q9 -15 -8 -15h-52q-11 0 -17 9l-155 268q-9 -1 -18 -1h-19h-46t-42 1v-260q0 -17 -16 -17h-36q-17 0 -17 17v607zM140 334q20 -1 45.5 -1.5t53.5 -0.5
q75 0 110 30t35 101v13q0 69 -37 96.5t-120 27.5q-22 0 -40 -1t-32 -3q-10 -2 -12.5 -5t-2.5 -13v-244zM243 700q-5 0 -9 1.5t-9 6.5l-107 119q-11 12 1 20l23 16q11 9 22 -2l92 -96h5l92 96q11 11 22 2l23 -16q12 -8 1 -20l-107 -119q-5 -5 -9 -6.5t-9 -1.5h-31z" />
    <glyph glyph-name="Rcommaaccent" unicode="&#x156;" 
d="M71 624q0 18 18 21q29 5 62 8t75 3q112 0 171.5 -42.5t59.5 -135.5v-21q0 -65 -32 -108.5t-92 -59.5l164 -274q9 -15 -8 -15h-52q-11 0 -17 9l-155 268q-9 -1 -18 -1h-19h-46t-42 1v-260q0 -17 -16 -17h-36q-17 0 -17 17v607zM140 334q20 -1 45.5 -1.5t53.5 -0.5
q75 0 110 30t35 101v13q0 69 -37 96.5t-120 27.5q-22 0 -40 -1t-32 -3q-10 -2 -12.5 -5t-2.5 -13v-244zM281 -69q17 0 26 -8.5t9 -29.5v-18q0 -69 -62 -130q-9 -9 -17 -3l-14 12q-8 7 -2 14q8 10 19 24t17 27q8 15 -8 23q-12 6 -17.5 13.5t-5.5 24.5v18q0 17 9.5 25t24.5 8
h21z" />
    <glyph glyph-name="Sacute" unicode="&#x15a;" horiz-adv-x="465" 
d="M217 -9q-50 0 -90.5 7.5t-75.5 21.5q-13 5 -10 17l8 33q3 15 21 8q27 -12 65.5 -21.5t79.5 -9.5q72 0 106.5 32t34.5 90v11q0 27 -5 46t-17 32.5t-32.5 22.5t-51.5 17l-67 16q-72 17 -107 55t-35 107v15q0 81 52 123t140 42q43 0 78.5 -5t64.5 -14q11 -3 13 -8t0 -14
l-7 -24q-4 -15 -24 -9q-33 10 -60 14t-63 4q-124 0 -124 -110v-10q0 -27 7 -45t20.5 -30t33 -19.5t44.5 -13.5l63 -15q41 -10 69 -23.5t45.5 -33t25 -46.5t7.5 -64v-16q0 -93 -54 -138t-155 -45zM330 830q20 9 27 -7l17 -35q7 -16 -13 -24l-171 -65q-11 -4 -16 -3t-9 9
l-10 22q-6 14 5 20z" />
    <glyph glyph-name="Scircumflex" unicode="&#x15c;" horiz-adv-x="465" 
d="M217 -9q-50 0 -90.5 7.5t-75.5 21.5q-13 5 -10 17l8 33q3 15 21 8q27 -12 65.5 -21.5t79.5 -9.5q72 0 106.5 32t34.5 90v11q0 27 -5 46t-17 32.5t-32.5 22.5t-51.5 17l-67 16q-72 17 -107 55t-35 107v15q0 81 52 123t140 42q43 0 78.5 -5t64.5 -14q11 -3 13 -8t0 -14
l-7 -24q-4 -15 -24 -9q-33 10 -60 14t-63 4q-124 0 -124 -110v-10q0 -27 7 -45t20.5 -30t33 -19.5t44.5 -13.5l63 -15q41 -10 69 -23.5t45.5 -33t25 -46.5t7.5 -64v-16q0 -93 -54 -138t-155 -45zM257 866q7 0 10 -1.5t8 -6.5l105 -119q11 -12 -1 -20l-23 -16q-11 -9 -22 2
l-92 96h-5l-92 -96q-11 -11 -22 -2l-23 16q-13 8 -1 20l105 119q5 5 8 6.5t10 1.5h35z" />
    <glyph glyph-name="Scaron" unicode="&#x160;" horiz-adv-x="465" 
d="M217 -9q-50 0 -90.5 7.5t-75.5 21.5q-13 5 -10 17l8 33q3 15 21 8q27 -12 65.5 -21.5t79.5 -9.5q72 0 106.5 32t34.5 90v11q0 27 -5 46t-17 32.5t-32.5 22.5t-51.5 17l-67 16q-72 17 -107 55t-35 107v15q0 81 52 123t140 42q43 0 78.5 -5t64.5 -14q11 -3 13 -8t0 -14
l-7 -24q-4 -15 -24 -9q-33 10 -60 14t-63 4q-124 0 -124 -110v-10q0 -27 7 -45t20.5 -30t33 -19.5t44.5 -13.5l63 -15q41 -10 69 -23.5t45.5 -33t25 -46.5t7.5 -64v-16q0 -93 -54 -138t-155 -45zM216 700q-5 0 -9 1.5t-9 6.5l-107 119q-11 12 1 20l23 16q11 9 22 -2l92 -96
h5l92 96q11 11 22 2l23 -16q12 -8 1 -20l-107 -119q-5 -5 -9 -6.5t-9 -1.5h-31z" />
    <glyph glyph-name="Scedilla" unicode="&#x15e;" horiz-adv-x="465" 
d="M426 174q0 -88 -48.5 -132.5t-139.5 -49.5l-7 -49q8 2 16 2h17q29 0 49.5 -18t20.5 -58q0 -48 -28.5 -70.5t-88.5 -22.5q-14 0 -32 2.5t-34 7.5q-8 3 -7 11l4 30q3 11 12 8q13 -4 27.5 -6.5t27.5 -2.5q30 0 44.5 7.5t14.5 33.5q0 16 -7 23.5t-27 7.5q-9 0 -19 -1t-19 -3
q-10 -3 -15 4l-8 13q-3 6 -2 15l10 66q-79 4 -136 28q-13 5 -10 17l8 33q3 15 21 8q27 -12 65.5 -21.5t79.5 -9.5q72 0 106.5 32t34.5 90v11q0 27 -5 46t-17 32.5t-32.5 22.5t-51.5 17l-67 16q-72 17 -107 55t-35 107v15q0 81 52 123t140 42q43 0 78.5 -5t64.5 -14
q11 -3 13 -8t0 -14l-7 -24q-4 -15 -24 -9q-33 10 -60 14t-63 4q-124 0 -124 -110v-10q0 -27 7 -45t20.5 -30t33 -19.5t44.5 -13.5l63 -15q41 -10 69 -23.5t45.5 -33t25 -46.5t7.5 -64v-16v0z" />
    <glyph glyph-name="Scommaaccent" unicode="&#x218;" horiz-adv-x="465" 
d="M217 -9q-50 0 -90.5 7.5t-75.5 21.5q-13 5 -10 17l8 33q3 15 21 8q27 -12 65.5 -21.5t79.5 -9.5q72 0 106.5 32t34.5 90v11q0 27 -5 46t-17 32.5t-32.5 22.5t-51.5 17l-67 16q-72 17 -107 55t-35 107v15q0 81 52 123t140 42q43 0 78.5 -5t64.5 -14q11 -3 13 -8t0 -14
l-7 -24q-4 -15 -24 -9q-33 10 -60 14t-63 4q-124 0 -124 -110v-10q0 -27 7 -45t20.5 -30t33 -19.5t44.5 -13.5l63 -15q41 -10 69 -23.5t45.5 -33t25 -46.5t7.5 -64v-16q0 -93 -54 -138t-155 -45zM244 -69q17 0 26 -8.5t9 -29.5v-18q0 -69 -62 -130q-9 -9 -17 -3l-14 12
q-8 7 -2 14q8 10 19 24t17 27q8 15 -8 23q-12 6 -17.5 13.5t-5.5 24.5v18q0 17 9.5 25t24.5 8h21z" />
    <glyph glyph-name="Tcaron" unicode="&#x164;" horiz-adv-x="479" 
d="M219 0q-8 0 -11 3t-3 12v576h-170q-9 0 -12 4t-3 11v28q0 10 5 11.5t10 1.5h409q9 0 12 -3.5t3 -11.5v-26q0 -7 -3 -11t-12 -4h-170v-576q0 -9 -3 -12t-11 -3h-41zM224 700q-5 0 -9 1.5t-9 6.5l-107 119q-11 12 1 20l23 16q11 9 22 -2l92 -96h5l92 96q11 11 22 2l23 -16
q12 -8 1 -20l-107 -119q-5 -5 -9 -6.5t-9 -1.5h-31z" />
    <glyph glyph-name="Tcommaaccent" unicode="&#x162;" horiz-adv-x="479" 
d="M219 0q-8 0 -11 3t-3 12v576h-170q-9 0 -12 4t-3 11v28q0 10 5 11.5t10 1.5h409q9 0 12 -3.5t3 -11.5v-26q0 -7 -3 -11t-12 -4h-170v-576q0 -9 -3 -12t-11 -3h-41zM248 -69q17 0 26 -8.5t9 -29.5v-18q0 -69 -62 -130q-9 -9 -17 -3l-14 12q-8 7 -2 14q8 10 19 24t17 27
q8 15 -8 23q-12 6 -17.5 13.5t-5.5 24.5v18q0 17 9.5 25t24.5 8h21z" />
    <glyph glyph-name="uni021A" unicode="&#x21a;" horiz-adv-x="479" 
d="M219 0q-8 0 -11 3t-3 12v576h-170q-9 0 -12 4t-3 11v28q0 10 5 11.5t10 1.5h409q9 0 12 -3.5t3 -11.5v-26q0 -7 -3 -11t-12 -4h-170v-576q0 -9 -3 -12t-11 -3h-41zM248 -69q17 0 26 -8.5t9 -29.5v-18q0 -69 -62 -130q-9 -9 -17 -3l-14 12q-8 7 -2 14q8 10 19 24t17 27
q8 15 -8 23q-12 6 -17.5 13.5t-5.5 24.5v18q0 17 9.5 25t24.5 8h21z" />
    <glyph glyph-name="Tbar" unicode="&#x166;" horiz-adv-x="479" 
d="M219 0q-8 0 -11 3t-3 12v286h-137q-9 0 -12 3.5t-3 11.5v28q0 7 3 11t12 4h137v232h-170q-9 0 -12 4t-3 11v28q0 10 5 11.5t10 1.5h409q9 0 12 -3.5t3 -11.5v-26q0 -7 -3 -11t-12 -4h-170v-232h137q9 0 12 -4t3 -11v-30q0 -10 -5 -11.5t-10 -1.5h-137v-286q0 -9 -3 -12
t-11 -3h-41z" />
    <glyph glyph-name="Ugrave" unicode="&#xd9;" horiz-adv-x="584" 
d="M516 210q0 -112 -54 -166q-27 -26 -68 -39.5t-102 -13.5t-102 13.5t-68 39.5q-54 54 -54 166v420q0 17 16 17h37q16 0 16 -17v-416q0 -41 8 -72t27 -52q38 -43 120 -43t120 43q19 21 27 52t8 72v416q0 17 16 17h37q16 0 16 -17v-420zM387 747q11 -6 5 -20l-10 -22
q-5 -8 -9.5 -9t-15.5 3l-171 65q-20 8 -13 24l17 35q7 16 27 7z" />
    <glyph glyph-name="Uacute" unicode="&#xda;" horiz-adv-x="584" 
d="M516 210q0 -112 -54 -166q-27 -26 -68 -39.5t-102 -13.5t-102 13.5t-68 39.5q-54 54 -54 166v420q0 17 16 17h37q16 0 16 -17v-416q0 -41 8 -72t27 -52q38 -43 120 -43t120 43q19 21 27 52t8 72v416q0 17 16 17h37q16 0 16 -17v-420zM367 830q20 9 27 -7l17 -35
q7 -16 -13 -24l-171 -65q-11 -4 -16 -3t-9 9l-10 22q-6 14 5 20z" />
    <glyph glyph-name="Ucircumflex" unicode="&#xdb;" horiz-adv-x="584" 
d="M516 210q0 -112 -54 -166q-27 -26 -68 -39.5t-102 -13.5t-102 13.5t-68 39.5q-54 54 -54 166v420q0 17 16 17h37q16 0 16 -17v-416q0 -41 8 -72t27 -52q38 -43 120 -43t120 43q19 21 27 52t8 72v416q0 17 16 17h37q16 0 16 -17v-420zM310 866q7 0 10 -1.5t8 -6.5
l105 -119q11 -12 -1 -20l-23 -16q-11 -9 -22 2l-92 96h-5l-92 -96q-11 -11 -22 -2l-23 16q-13 8 -1 20l105 119q5 5 8 6.5t10 1.5h35z" />
    <glyph glyph-name="Utilde" unicode="&#x168;" horiz-adv-x="584" 
d="M516 210q0 -112 -54 -166q-27 -26 -68 -39.5t-102 -13.5t-102 13.5t-68 39.5q-54 54 -54 166v420q0 17 16 17h37q16 0 16 -17v-416q0 -41 8 -72t27 -52q38 -43 120 -43t120 43q19 21 27 52t8 72v416q0 17 16 17h37q16 0 16 -17v-420zM133 733q-7 4 -3 13q20 40 46.5 60.5
t55.5 20.5q17 0 31 -5t28 -15l28 -20q12 -9 19.5 -12.5t16.5 -3.5q23 0 53 45q6 10 15 4l26 -16q10 -6 5 -15q-20 -36 -47 -57.5t-56 -21.5q-32 0 -58 19l-28 20q-11 8 -18.5 12t-18.5 4q-14 0 -26.5 -10.5t-26.5 -34.5q-4 -7 -7.5 -7t-9.5 4z" />
    <glyph glyph-name="Udieresis" unicode="&#xdc;" horiz-adv-x="584" 
d="M516 210q0 -112 -54 -166q-27 -26 -68 -39.5t-102 -13.5t-102 13.5t-68 39.5q-54 54 -54 166v420q0 17 16 17h37q16 0 16 -17v-416q0 -41 8 -72t27 -52q38 -43 120 -43t120 43q19 21 27 52t8 72v416q0 17 16 17h37q16 0 16 -17v-420zM217 823q20 0 32 -10t12 -29v-23
q0 -20 -12 -29.5t-32 -9.5h-10q-19 0 -30.5 9.5t-11.5 29.5v23q0 19 11.5 29t30.5 10h10zM379 823q43 0 43 -39v-23q0 -39 -43 -39h-10q-19 0 -30.5 9.5t-11.5 29.5v23q0 19 11.5 29t30.5 10h10z" />
    <glyph glyph-name="Umacron" unicode="&#x16a;" horiz-adv-x="584" 
d="M516 210q0 -112 -54 -166q-27 -26 -68 -39.5t-102 -13.5t-102 13.5t-68 39.5q-54 54 -54 166v420q0 17 16 17h37q16 0 16 -17v-416q0 -41 8 -72t27 -52q38 -43 120 -43t120 43q19 21 27 52t8 72v416q0 17 16 17h37q16 0 16 -17v-420zM404 792q9 0 12 -4t3 -11v-35
q0 -10 -5 -11.5t-10 -1.5h-225q-9 0 -12 3.5t-3 11.5v33q0 7 3 11t12 4h225z" />
    <glyph glyph-name="Ubreve" unicode="&#x16c;" horiz-adv-x="584" 
d="M516 210q0 -112 -54 -166q-27 -26 -68 -39.5t-102 -13.5t-102 13.5t-68 39.5q-54 54 -54 166v420q0 17 16 17h37q16 0 16 -17v-416q0 -41 8 -72t27 -52q38 -43 120 -43t120 43q19 21 27 52t8 72v416q0 17 16 17h37q16 0 16 -17v-420zM381 823q2 8 5.5 9.5t13.5 -1.5
l28 -8q13 -4 9 -18q-15 -55 -54.5 -82.5t-90.5 -27.5t-90.5 27.5t-54.5 82.5q-4 14 9 18l28 8q10 3 13.5 1.5t5.5 -9.5q12 -39 34.5 -56t54.5 -17t55 17.5t34 55.5z" />
    <glyph glyph-name="Uring" unicode="&#x16e;" horiz-adv-x="584" 
d="M516 210q0 -112 -54 -166q-27 -26 -68 -39.5t-102 -13.5t-102 13.5t-68 39.5q-54 54 -54 166v420q0 17 16 17h37q16 0 16 -17v-416q0 -41 8 -72t27 -52q38 -43 120 -43t120 43q19 21 27 52t8 72v416q0 17 16 17h37q16 0 16 -17v-420zM201 790q0 43 26.5 67t64.5 24
t64.5 -24t26.5 -67t-26.5 -67t-64.5 -24t-64.5 24t-26.5 67zM248 790q0 -21 12.5 -32.5t31.5 -11.5t31.5 11.5t12.5 32.5t-12.5 32.5t-31.5 11.5t-31.5 -11.5t-12.5 -32.5z" />
    <glyph glyph-name="Uhungarumlaut" unicode="&#x170;" horiz-adv-x="584" 
d="M516 210q0 -112 -54 -166q-27 -26 -68 -39.5t-102 -13.5t-102 13.5t-68 39.5q-54 54 -54 166v420q0 17 16 17h37q16 0 16 -17v-416q0 -41 8 -72t27 -52q38 -43 120 -43t120 43q19 21 27 52t8 72v416q0 17 16 17h37q16 0 16 -17v-420zM294 850q8 7 14 5.5t13 -9.5l21 -26
q11 -15 -7 -27l-147 -99q-8 -5 -12.5 -4.5t-10.5 8.5l-14 18q-5 7 -3.5 12.5t6.5 10.5zM498 850q8 7 14 5.5t13 -9.5l21 -26q11 -15 -7 -27l-147 -99q-8 -5 -12.5 -4.5t-10.5 8.5l-14 18q-5 7 -3.5 12.5t6.5 10.5z" />
    <glyph glyph-name="Uogonek" unicode="&#x172;" horiz-adv-x="584" 
d="M516 210q0 -112 -54 -166q-14 -14 -30 -22.5t-34 -16.5q-58 -24 -79.5 -54.5t-21.5 -58.5q0 -36 43 -36q13 0 25.5 3t22.5 8q11 5 14 -5l6 -28q3 -10 -8 -15q-16 -7 -32.5 -11t-41.5 -4q-45 0 -70.5 18.5t-25.5 56.5q0 35 21 63.5t58 48.5h-17q-61 0 -102 13.5t-68 39.5
q-54 54 -54 166v420q0 17 16 17h37q16 0 16 -17v-416q0 -41 8 -72t27 -52q38 -43 120 -43t120 43q19 21 27 52t8 72v416q0 17 16 17h37q16 0 16 -17v-420z" />
    <glyph glyph-name="Wgrave" unicode="&#x1e80;" horiz-adv-x="796" 
d="M457 587q26 -132 55 -263t63 -258h11q38 146 66 284.5t50 276.5q2 14 7 17t17 3h29q12 0 16 -4.5t2 -15.5q-26 -154 -57.5 -302t-73.5 -297q-5 -19 -13 -23.5t-27 -4.5h-41q-19 0 -27.5 4t-13.5 24q-35 129 -64.5 261.5t-52.5 259.5h-11q-23 -127 -52 -259.5t-64 -261.5
q-7 -19 -14.5 -23.5t-26.5 -4.5h-41q-19 0 -27 4.5t-13 23.5q-39 148 -72 297t-59 303q-2 11 2 15t16 4h29q12 0 17 -2.5t7 -16.5q23 -140 51 -279.5t65 -282.5h11q34 127 63 257.5t54 263.5q4 20 12.5 24t27.5 4h38q19 0 28 -4t13 -24zM489 747q11 -6 5 -20l-10 -22
q-5 -8 -9.5 -9t-15.5 3l-171 65q-20 8 -13 24l17 35q7 16 27 7z" />
    <glyph glyph-name="Wacute" unicode="&#x1e82;" horiz-adv-x="796" 
d="M457 587q26 -132 55 -263t63 -258h11q38 146 66 284.5t50 276.5q2 14 7 17t17 3h29q12 0 16 -4.5t2 -15.5q-26 -154 -57.5 -302t-73.5 -297q-5 -19 -13 -23.5t-27 -4.5h-41q-19 0 -27.5 4t-13.5 24q-35 129 -64.5 261.5t-52.5 259.5h-11q-23 -127 -52 -259.5t-64 -261.5
q-7 -19 -14.5 -23.5t-26.5 -4.5h-41q-19 0 -27 4.5t-13 23.5q-39 148 -72 297t-59 303q-2 11 2 15t16 4h29q12 0 17 -2.5t7 -16.5q23 -140 51 -279.5t65 -282.5h11q34 127 63 257.5t54 263.5q4 20 12.5 24t27.5 4h38q19 0 28 -4t13 -24zM478 830q20 9 27 -7l17 -35
q7 -16 -13 -24l-171 -65q-11 -4 -16 -3t-9 9l-10 22q-6 14 5 20z" />
    <glyph glyph-name="Wcircumflex" unicode="&#x174;" horiz-adv-x="796" 
d="M457 587q26 -132 55 -263t63 -258h11q38 146 66 284.5t50 276.5q2 14 7 17t17 3h29q12 0 16 -4.5t2 -15.5q-26 -154 -57.5 -302t-73.5 -297q-5 -19 -13 -23.5t-27 -4.5h-41q-19 0 -27.5 4t-13.5 24q-35 129 -64.5 261.5t-52.5 259.5h-11q-23 -127 -52 -259.5t-64 -261.5
q-7 -19 -14.5 -23.5t-26.5 -4.5h-41q-19 0 -27 4.5t-13 23.5q-39 148 -72 297t-59 303q-2 11 2 15t16 4h29q12 0 17 -2.5t7 -16.5q23 -140 51 -279.5t65 -282.5h11q34 127 63 257.5t54 263.5q4 20 12.5 24t27.5 4h38q19 0 28 -4t13 -24zM415 866q7 0 10 -1.5t8 -6.5
l105 -119q11 -12 -1 -20l-23 -16q-11 -9 -22 2l-92 96h-5l-92 -96q-11 -11 -22 -2l-23 16q-13 8 -1 20l105 119q5 5 8 6.5t10 1.5h35z" />
    <glyph glyph-name="Wdieresis" unicode="&#x1e84;" horiz-adv-x="796" 
d="M457 587q26 -132 55 -263t63 -258h11q38 146 66 284.5t50 276.5q2 14 7 17t17 3h29q12 0 16 -4.5t2 -15.5q-26 -154 -57.5 -302t-73.5 -297q-5 -19 -13 -23.5t-27 -4.5h-41q-19 0 -27.5 4t-13.5 24q-35 129 -64.5 261.5t-52.5 259.5h-11q-23 -127 -52 -259.5t-64 -261.5
q-7 -19 -14.5 -23.5t-26.5 -4.5h-41q-19 0 -27 4.5t-13 23.5q-39 148 -72 297t-59 303q-2 11 2 15t16 4h29q12 0 17 -2.5t7 -16.5q23 -140 51 -279.5t65 -282.5h11q34 127 63 257.5t54 263.5q4 20 12.5 24t27.5 4h38q19 0 28 -4t13 -24zM321 823q20 0 32 -10t12 -29v-23
q0 -20 -12 -29.5t-32 -9.5h-10q-19 0 -30.5 9.5t-11.5 29.5v23q0 19 11.5 29t30.5 10h10zM483 823q43 0 43 -39v-23q0 -39 -43 -39h-10q-19 0 -30.5 9.5t-11.5 29.5v23q0 19 11.5 29t30.5 10h10z" />
    <glyph glyph-name="Ygrave" unicode="&#x1ef2;" horiz-adv-x="475" 
d="M219 0q-8 0 -12 3t-4 12v205q-19 34 -36 66.5t-34 65.5q-32 63 -59.5 131t-50.5 152q-4 12 10 12h44q15 0 18 -10q39 -133 97 -260q20 -47 42 -86h7q11 20 21 41.5t20 44.5q28 63 53 128t45 132q4 10 18 10h44q14 0 10 -12q-23 -84 -51 -152t-59 -131
q-17 -33 -34.5 -65.5t-35.5 -66.5v-205q0 -9 -4 -12t-12 -3h-37zM338 747q11 -6 5 -20l-10 -22q-5 -8 -9.5 -9t-15.5 3l-171 65q-20 8 -13 24l17 35q7 16 27 7z" />
    <glyph glyph-name="Yacute" unicode="&#xdd;" horiz-adv-x="475" 
d="M219 0q-8 0 -12 3t-4 12v205q-19 34 -36 66.5t-34 65.5q-32 63 -59.5 131t-50.5 152q-4 12 10 12h44q15 0 18 -10q39 -133 97 -260q20 -47 42 -86h7q11 20 21 41.5t20 44.5q28 63 53 128t45 132q4 10 18 10h44q14 0 10 -12q-23 -84 -51 -152t-59 -131
q-17 -33 -34.5 -65.5t-35.5 -66.5v-205q0 -9 -4 -12t-12 -3h-37zM319 830q20 9 27 -7l17 -35q7 -16 -13 -24l-171 -65q-11 -4 -16 -3t-9 9l-10 22q-6 14 5 20z" />
    <glyph glyph-name="Ycircumflex" unicode="&#x176;" horiz-adv-x="475" 
d="M219 0q-8 0 -12 3t-4 12v205q-19 34 -36 66.5t-34 65.5q-32 63 -59.5 131t-50.5 152q-4 12 10 12h44q15 0 18 -10q39 -133 97 -260q20 -47 42 -86h7q11 20 21 41.5t20 44.5q28 63 53 128t45 132q4 10 18 10h44q14 0 10 -12q-23 -84 -51 -152t-59 -131
q-17 -33 -34.5 -65.5t-35.5 -66.5v-205q0 -9 -4 -12t-12 -3h-37zM255 866q7 0 10 -1.5t8 -6.5l105 -119q11 -12 -1 -20l-23 -16q-11 -9 -22 2l-92 96h-5l-92 -96q-11 -11 -22 -2l-23 16q-13 8 -1 20l105 119q5 5 8 6.5t10 1.5h35z" />
    <glyph glyph-name="Ydieresis" unicode="&#x178;" horiz-adv-x="475" 
d="M219 0q-8 0 -12 3t-4 12v205q-19 34 -36 66.5t-34 65.5q-32 63 -59.5 131t-50.5 152q-4 12 10 12h44q15 0 18 -10q39 -133 97 -260q20 -47 42 -86h7q11 20 21 41.5t20 44.5q28 63 53 128t45 132q4 10 18 10h44q14 0 10 -12q-23 -84 -51 -152t-59 -131
q-17 -33 -34.5 -65.5t-35.5 -66.5v-205q0 -9 -4 -12t-12 -3h-37zM162 823q20 0 32 -10t12 -29v-23q0 -20 -12 -29.5t-32 -9.5h-10q-19 0 -30.5 9.5t-11.5 29.5v23q0 19 11.5 29t30.5 10h10zM324 823q43 0 43 -39v-23q0 -39 -43 -39h-10q-19 0 -30.5 9.5t-11.5 29.5v23
q0 19 11.5 29t30.5 10h10z" />
    <glyph glyph-name="Zacute" unicode="&#x179;" horiz-adv-x="485" 
d="M37 30q0 13 4 21.5t15 27.5l307 512h-296q-13 0 -13 14v29q0 13 13 13h361q17 0 17 -16v-14q0 -8 -1.5 -15t-4.5 -14.5t-8.5 -17.5t-13.5 -23l-294 -491h305q13 0 13 -13v-30q0 -13 -13 -13h-372q-19 0 -19 18v12zM327 830q20 9 27 -7l17 -35q7 -16 -13 -24l-171 -65
q-11 -4 -16 -3t-9 9l-10 22q-6 14 5 20z" />
    <glyph glyph-name="Zcaron" unicode="&#x17d;" horiz-adv-x="485" 
d="M37 30q0 13 4 21.5t15 27.5l307 512h-296q-13 0 -13 14v29q0 13 13 13h361q17 0 17 -16v-14q0 -8 -1.5 -15t-4.5 -14.5t-8.5 -17.5t-13.5 -23l-294 -491h305q13 0 13 -13v-30q0 -13 -13 -13h-372q-19 0 -19 18v12zM237 700q-5 0 -9 1.5t-9 6.5l-107 119q-11 12 1 20
l23 16q11 9 22 -2l92 -96h5l92 96q11 11 22 2l23 -16q12 -8 1 -20l-107 -119q-5 -5 -9 -6.5t-9 -1.5h-31z" />
    <glyph glyph-name="Zdotaccent" unicode="&#x17b;" horiz-adv-x="485" 
d="M37 30q0 13 4 21.5t15 27.5l307 512h-296q-13 0 -13 14v29q0 13 13 13h361q17 0 17 -16v-14q0 -8 -1.5 -15t-4.5 -14.5t-8.5 -17.5t-13.5 -23l-294 -491h305q13 0 13 -13v-30q0 -13 -13 -13h-372q-19 0 -19 18v12zM192 770q0 25 17.5 42.5t42.5 17.5t42.5 -17.5
t17.5 -42.5t-17.5 -42.5t-42.5 -17.5t-42.5 17.5t-17.5 42.5z" />
    <glyph glyph-name="agrave" unicode="&#xe0;" horiz-adv-x="464" 
d="M341 44h-2q-17 -26 -42.5 -39.5t-63.5 -13.5h-50q-32 0 -61 9.5t-46 26.5q-36 36 -36 94v30q0 46 20 78.5t58 47.5q17 7 44.5 10.5t75.5 3.5h30q17 0 34.5 -0.5t32.5 -2.5v57q0 58 -30.5 78t-90.5 20q-52 0 -103 -15q-11 -3 -17.5 -2t-8.5 10l-5 21q-2 9 -0.5 14.5
t11.5 8.5q25 8 60 13.5t68 5.5q96 0 138.5 -34.5t42.5 -112.5v-342q0 -10 -11 -10h-33q-13 0 -13 10zM335 233q-12 2 -27.5 2.5t-32.5 0.5h-56q-33 0 -53.5 -4.5t-34.5 -15.5q-25 -19 -25 -66v-21q0 -46 21 -65q19 -18 61 -18h41q50 0 78 26t28 78v83zM336 624q11 -6 5 -20
l-10 -22q-4 -8 -9 -9t-16 3l-171 65q-10 5 -13.5 10t0.5 14l17 35q7 16 27 7z" />
    <glyph glyph-name="aacute" unicode="&#xe1;" horiz-adv-x="464" 
d="M341 44h-2q-17 -26 -42.5 -39.5t-63.5 -13.5h-50q-32 0 -61 9.5t-46 26.5q-36 36 -36 94v30q0 46 20 78.5t58 47.5q17 7 44.5 10.5t75.5 3.5h30q17 0 34.5 -0.5t32.5 -2.5v57q0 58 -30.5 78t-90.5 20q-52 0 -103 -15q-11 -3 -17.5 -2t-8.5 10l-5 21q-2 9 -0.5 14.5
t11.5 8.5q25 8 60 13.5t68 5.5q96 0 138.5 -34.5t42.5 -112.5v-342q0 -10 -11 -10h-33q-13 0 -13 10zM335 233q-12 2 -27.5 2.5t-32.5 0.5h-56q-33 0 -53.5 -4.5t-34.5 -15.5q-25 -19 -25 -66v-21q0 -46 21 -65q19 -18 61 -18h41q50 0 78 26t28 78v83zM314 707q20 9 27 -7
l17 -35q4 -9 0.5 -14t-13.5 -10l-171 -65q-11 -4 -16 -3t-9 9l-10 22q-6 14 5 20z" />
    <glyph glyph-name="acircumflex" unicode="&#xe2;" horiz-adv-x="464" 
d="M341 44h-2q-17 -26 -42.5 -39.5t-63.5 -13.5h-50q-32 0 -61 9.5t-46 26.5q-36 36 -36 94v30q0 46 20 78.5t58 47.5q17 7 44.5 10.5t75.5 3.5h30q17 0 34.5 -0.5t32.5 -2.5v57q0 58 -30.5 78t-90.5 20q-52 0 -103 -15q-11 -3 -17.5 -2t-8.5 10l-5 21q-2 9 -0.5 14.5
t11.5 8.5q25 8 60 13.5t68 5.5q96 0 138.5 -34.5t42.5 -112.5v-342q0 -10 -11 -10h-33q-13 0 -13 10zM335 233q-12 2 -27.5 2.5t-32.5 0.5h-56q-33 0 -53.5 -4.5t-34.5 -15.5q-25 -19 -25 -66v-21q0 -46 21 -65q19 -18 61 -18h41q50 0 78 26t28 78v83zM251 728q7 0 10 -1.5
t8 -6.5l105 -119q11 -12 -1 -20l-23 -16q-11 -9 -22 2l-92 96h-5l-92 -96q-11 -11 -22 -2l-23 16q-13 8 -1 20l105 119q5 5 8 6.5t10 1.5h35z" />
    <glyph glyph-name="atilde" unicode="&#xe3;" horiz-adv-x="464" 
d="M341 44h-2q-17 -26 -42.5 -39.5t-63.5 -13.5h-50q-32 0 -61 9.5t-46 26.5q-36 36 -36 94v30q0 46 20 78.5t58 47.5q17 7 44.5 10.5t75.5 3.5h30q17 0 34.5 -0.5t32.5 -2.5v57q0 58 -30.5 78t-90.5 20q-52 0 -103 -15q-11 -3 -17.5 -2t-8.5 10l-5 21q-2 9 -0.5 14.5
t11.5 8.5q25 8 60 13.5t68 5.5q96 0 138.5 -34.5t42.5 -112.5v-342q0 -10 -11 -10h-33q-13 0 -13 10zM335 233q-12 2 -27.5 2.5t-32.5 0.5h-56q-33 0 -53.5 -4.5t-34.5 -15.5q-25 -19 -25 -66v-21q0 -46 21 -65q19 -18 61 -18h41q50 0 78 26t28 78v83zM79 602q-7 4 -3 13
q20 40 46.5 60.5t55.5 20.5q17 0 31 -5t28 -15l28 -20q12 -9 19.5 -12.5t16.5 -3.5q23 0 53 45q6 10 15 4l26 -16q10 -6 5 -15q-20 -36 -47 -57.5t-56 -21.5q-32 0 -58 19l-28 20q-11 8 -18.5 12t-18.5 4q-14 0 -26.5 -10.5t-26.5 -34.5q-4 -7 -7.5 -7t-9.5 4z" />
    <glyph glyph-name="adieresis" unicode="&#xe4;" horiz-adv-x="464" 
d="M341 44h-2q-17 -26 -42.5 -39.5t-63.5 -13.5h-50q-32 0 -61 9.5t-46 26.5q-36 36 -36 94v30q0 46 20 78.5t58 47.5q17 7 44.5 10.5t75.5 3.5h30q17 0 34.5 -0.5t32.5 -2.5v57q0 58 -30.5 78t-90.5 20q-52 0 -103 -15q-11 -3 -17.5 -2t-8.5 10l-5 21q-2 9 -0.5 14.5
t11.5 8.5q25 8 60 13.5t68 5.5q96 0 138.5 -34.5t42.5 -112.5v-342q0 -10 -11 -10h-33q-13 0 -13 10zM335 233q-12 2 -27.5 2.5t-32.5 0.5h-56q-33 0 -53.5 -4.5t-34.5 -15.5q-25 -19 -25 -66v-21q0 -46 21 -65q19 -18 61 -18h41q50 0 78 26t28 78v83zM160 691q20 0 32 -10
t12 -29v-23q0 -20 -12 -29.5t-32 -9.5h-10q-19 0 -30.5 9.5t-11.5 29.5v23q0 19 11.5 29t30.5 10h10zM322 691q43 0 43 -39v-23q0 -39 -43 -39h-10q-19 0 -30.5 9.5t-11.5 29.5v23q0 19 11.5 29t30.5 10h10z" />
    <glyph glyph-name="amacron" unicode="&#x101;" horiz-adv-x="464" 
d="M341 44h-2q-17 -26 -42.5 -39.5t-63.5 -13.5h-50q-32 0 -61 9.5t-46 26.5q-36 36 -36 94v30q0 46 20 78.5t58 47.5q17 7 44.5 10.5t75.5 3.5h30q17 0 34.5 -0.5t32.5 -2.5v57q0 58 -30.5 78t-90.5 20q-52 0 -103 -15q-11 -3 -17.5 -2t-8.5 10l-5 21q-2 9 -0.5 14.5
t11.5 8.5q25 8 60 13.5t68 5.5q96 0 138.5 -34.5t42.5 -112.5v-342q0 -10 -11 -10h-33q-13 0 -13 10zM335 233q-12 2 -27.5 2.5t-32.5 0.5h-56q-33 0 -53.5 -4.5t-34.5 -15.5q-25 -19 -25 -66v-21q0 -46 21 -65q19 -18 61 -18h41q50 0 78 26t28 78v83zM352 669q9 0 12 -4
t3 -11v-35q0 -10 -5 -11.5t-10 -1.5h-225q-9 0 -12 3.5t-3 11.5v33q0 7 3 11t12 4h225z" />
    <glyph glyph-name="abreve" unicode="&#x103;" horiz-adv-x="464" 
d="M341 44h-2q-17 -26 -42.5 -39.5t-63.5 -13.5h-50q-32 0 -61 9.5t-46 26.5q-36 36 -36 94v30q0 46 20 78.5t58 47.5q17 7 44.5 10.5t75.5 3.5h30q17 0 34.5 -0.5t32.5 -2.5v57q0 58 -30.5 78t-90.5 20q-52 0 -103 -15q-11 -3 -17.5 -2t-8.5 10l-5 21q-2 9 -0.5 14.5
t11.5 8.5q25 8 60 13.5t68 5.5q96 0 138.5 -34.5t42.5 -112.5v-342q0 -10 -11 -10h-33q-13 0 -13 10zM335 233q-12 2 -27.5 2.5t-32.5 0.5h-56q-33 0 -53.5 -4.5t-34.5 -15.5q-25 -19 -25 -66v-21q0 -46 21 -65q19 -18 61 -18h41q50 0 78 26t28 78v83zM322 693q2 8 5.5 9.5
t13.5 -1.5l28 -8q13 -4 9 -18q-15 -55 -54.5 -82.5t-90.5 -27.5t-90.5 27.5t-54.5 82.5q-4 14 9 18l28 8q10 3 13.5 1.5t5.5 -9.5q12 -39 34.5 -56t54.5 -17t55 17.5t34 55.5z" />
    <glyph glyph-name="acaron" unicode="&#x1ce;" horiz-adv-x="464" 
d="M341 44h-2q-17 -26 -42.5 -39.5t-63.5 -13.5h-50q-32 0 -61 9.5t-46 26.5q-36 36 -36 94v30q0 46 20 78.5t58 47.5q17 7 44.5 10.5t75.5 3.5h30q17 0 34.5 -0.5t32.5 -2.5v57q0 58 -30.5 78t-90.5 20q-52 0 -103 -15q-11 -3 -17.5 -2t-8.5 10l-5 21q-2 9 -0.5 14.5
t11.5 8.5q25 8 60 13.5t68 5.5q96 0 138.5 -34.5t42.5 -112.5v-342q0 -10 -11 -10h-33q-13 0 -13 10zM335 233q-12 2 -27.5 2.5t-32.5 0.5h-56q-33 0 -53.5 -4.5t-34.5 -15.5q-25 -19 -25 -66v-21q0 -46 21 -65q19 -18 61 -18h41q50 0 78 26t28 78v83zM223 561q-5 0 -9 1.5
t-9 6.5l-107 119q-11 12 1 20l23 16q11 9 22 -2l92 -96h5l92 96q11 11 22 2l23 -16q12 -8 1 -20l-107 -119q-5 -5 -9 -6.5t-9 -1.5h-31z" />
    <glyph glyph-name="aring" unicode="&#xe5;" horiz-adv-x="464" 
d="M341 44h-2q-17 -26 -42.5 -39.5t-63.5 -13.5h-50q-32 0 -61 9.5t-46 26.5q-36 36 -36 94v30q0 46 20 78.5t58 47.5q17 7 44.5 10.5t75.5 3.5h30q17 0 34.5 -0.5t32.5 -2.5v57q0 58 -30.5 78t-90.5 20q-52 0 -103 -15q-11 -3 -17.5 -2t-8.5 10l-5 21q-2 9 -0.5 14.5
t11.5 8.5q25 8 60 13.5t68 5.5q96 0 138.5 -34.5t42.5 -112.5v-342q0 -10 -11 -10h-33q-13 0 -13 10zM335 233q-12 2 -27.5 2.5t-32.5 0.5h-56q-33 0 -53.5 -4.5t-34.5 -15.5q-25 -19 -25 -66v-21q0 -46 21 -65q19 -18 61 -18h41q50 0 78 26t28 78v83zM151 637q0 43 26.5 67
t64.5 24t64.5 -24t26.5 -67t-26.5 -67t-64.5 -24t-64.5 24t-26.5 67zM198 637q0 -21 12.5 -32.5t31.5 -11.5t31.5 11.5t12.5 32.5t-12.5 32.5t-31.5 11.5t-31.5 -11.5t-12.5 -32.5z" />
    <glyph glyph-name="aringacute" unicode="&#x1fb;" horiz-adv-x="464" 
d="M341 44h-2q-17 -26 -42.5 -39.5t-63.5 -13.5h-50q-32 0 -61 9.5t-46 26.5q-36 36 -36 94v30q0 46 20 78.5t58 47.5q17 7 44.5 10.5t75.5 3.5h30q17 0 34.5 -0.5t32.5 -2.5v57q0 58 -30.5 78t-90.5 20q-52 0 -103 -15q-11 -3 -17.5 -2t-8.5 10l-5 21q-2 9 -0.5 14.5
t11.5 8.5q25 8 60 13.5t68 5.5q96 0 138.5 -34.5t42.5 -112.5v-342q0 -10 -11 -10h-33q-13 0 -13 10zM335 233q-12 2 -27.5 2.5t-32.5 0.5h-56q-33 0 -53.5 -4.5t-34.5 -15.5q-25 -19 -25 -66v-21q0 -46 21 -65q19 -18 61 -18h41q50 0 78 26t28 78v83zM140 633q0 43 26.5 67
t64.5 24t64.5 -24t26.5 -67t-26.5 -67t-64.5 -24t-64.5 24t-26.5 67zM187 633q0 -21 12.5 -32.5t31.5 -11.5t31.5 11.5t12.5 32.5t-12.5 32.5t-31.5 11.5t-31.5 -11.5t-12.5 -32.5zM300 885q20 9 27 -7l17 -35q4 -9 0.5 -14t-13.5 -10l-171 -65q-11 -4 -16 -3t-9 9l-10 22
q-6 14 5 20z" />
    <glyph glyph-name="aogonek" unicode="&#x105;" horiz-adv-x="463" 
d="M341 44h-2q-17 -26 -42.5 -39.5t-63.5 -13.5h-50q-32 0 -61 9.5t-46 26.5q-36 36 -36 94v30q0 46 20 78.5t58 47.5q17 7 44.5 10.5t75.5 3.5h30q17 0 34.5 -0.5t32.5 -2.5v57q0 58 -30.5 78t-90.5 20q-52 0 -103 -15q-11 -3 -17.5 -2t-8.5 10l-5 21q-2 9 -0.5 14.5
t11.5 8.5q25 8 60 13.5t68 5.5q96 0 138 -34.5t42 -112.5v-334q0 -6 -1.5 -10.5t-7.5 -9.5q-33 -29 -50.5 -53t-17.5 -53q0 -36 43 -36q13 0 25.5 3t22.5 8q11 5 14 -5l6 -28q3 -10 -8 -15q-16 -7 -32.5 -11t-41.5 -4q-45 0 -70.5 18.5t-25.5 56.5q0 42 24 70t63 55z
M335 233q-12 2 -27.5 2.5t-32.5 0.5h-56q-33 0 -53.5 -4.5t-34.5 -15.5q-25 -19 -25 -66v-20q0 -47 21 -66q19 -18 61 -18h41q50 0 78 25.5t28 77.5v84z" />
    <glyph glyph-name="ae" unicode="&#xe6;" horiz-adv-x="744" 
d="M401 215v-7q1 -45 8.5 -76t23 -50t40 -27.5t59.5 -8.5q59 0 110 20q20 8 24 -7l7 -22q2 -8 0 -13.5t-22 -13.5q-51 -19 -119 -19q-66 0 -103.5 16.5t-60.5 54.5q-16 -30 -46.5 -50.5t-82.5 -20.5h-56q-32 0 -61 9.5t-46 26.5q-36 36 -36 94v30q0 46 20 78.5t58 47.5
q17 7 44.5 10.5t75.5 3.5h30q17 0 34.5 -0.5t32.5 -2.5v57q0 58 -30.5 78t-90.5 20q-52 0 -103 -15q-11 -3 -17.5 -2t-8.5 10l-5 21q-2 9 -0.5 14.5t11.5 8.5q25 8 60 13.5t68 5.5q35 0 63 -4t47 -14q16 -8 26.5 -18t18.5 -25q23 31 59 46t90 15q86 0 129 -41
q23 -22 33.5 -52t10.5 -78v-72q0 -22 -9 -31.5t-30 -9.5h-256zM335 233q-12 2 -27.5 2.5t-32.5 0.5h-56q-33 0 -53.5 -4.5t-34.5 -15.5q-25 -19 -25 -66v-20q0 -47 21 -66q19 -18 61 -18h41q106 0 106 103v84zM524 444q-32 0 -54.5 -8t-37.5 -27.5t-22.5 -53t-8.5 -83.5h215
q8 0 11 2t3 13v31q0 36 -5 57t-18 37q-26 32 -83 32z" />
    <glyph glyph-name="aeacute" unicode="&#x1fd;" horiz-adv-x="744" 
d="M401 215v-7q1 -45 8.5 -76t23 -50t40 -27.5t59.5 -8.5q59 0 110 20q20 8 24 -7l7 -22q2 -8 0 -13.5t-22 -13.5q-51 -19 -119 -19q-66 0 -103.5 16.5t-60.5 54.5q-16 -30 -46.5 -50.5t-82.5 -20.5h-56q-32 0 -61 9.5t-46 26.5q-36 36 -36 94v30q0 46 20 78.5t58 47.5
q17 7 44.5 10.5t75.5 3.5h30q17 0 34.5 -0.5t32.5 -2.5v57q0 58 -30.5 78t-90.5 20q-52 0 -103 -15q-11 -3 -17.5 -2t-8.5 10l-5 21q-2 9 -0.5 14.5t11.5 8.5q25 8 60 13.5t68 5.5q35 0 63 -4t47 -14q16 -8 26.5 -18t18.5 -25q23 31 59 46t90 15q86 0 129 -41
q23 -22 33.5 -52t10.5 -78v-72q0 -22 -9 -31.5t-30 -9.5h-256zM335 233q-12 2 -27.5 2.5t-32.5 0.5h-56q-33 0 -53.5 -4.5t-34.5 -15.5q-25 -19 -25 -66v-20q0 -47 21 -66q19 -18 61 -18h41q106 0 106 103v84zM524 444q-32 0 -54.5 -8t-37.5 -27.5t-22.5 -53t-8.5 -83.5h215
q8 0 11 2t3 13v31q0 36 -5 57t-18 37q-26 32 -83 32zM476 707q20 9 27 -7l17 -35q4 -9 0.5 -14t-13.5 -10l-171 -65q-11 -4 -16 -3t-9 9l-10 22q-6 14 5 20z" />
    <glyph glyph-name="cacute" unicode="&#x107;" horiz-adv-x="412" 
d="M372 36q3 -10 0.5 -14.5t-17.5 -10.5q-20 -8 -52.5 -14t-61.5 -6q-92 0 -138 43q-34 31 -46 81t-12 117v33q0 70 15 115t46 74q22 20 56 32.5t79 12.5q42 0 81 -13.5t62 -30.5q8 -6 1 -16l-17 -28q-5 -9 -17 -2q-56 34 -110 34q-58 0 -90 -31q-14 -14 -22 -32.5t-12 -39
t-5 -42t-1 -42.5v-17q0 -58 7 -94.5t25 -59.5q16 -20 42.5 -29t58.5 -9q26 0 50 5t47 14q20 8 24 -7zM338 707q20 9 27 -7l17 -35q4 -9 0.5 -14t-13.5 -10l-171 -65q-11 -4 -16 -3t-9 9l-10 22q-6 14 5 20z" />
    <glyph glyph-name="ccedilla" unicode="&#xe7;" horiz-adv-x="412" 
d="M372 36q3 -10 0.5 -14.5t-17.5 -10.5q-20 -8 -49 -13.5t-58 -6.5l-7 -55q8 2 16 2h17q29 0 49.5 -18t20.5 -58q0 -48 -28.5 -70.5t-88.5 -22.5q-14 0 -32 2.5t-34 7.5q-8 3 -7 11l4 30q3 11 12 8q13 -4 27.5 -6.5t27.5 -2.5q30 0 44.5 7.5t14.5 33.5q0 16 -7 23.5
t-27 7.5q-9 0 -19 -1t-19 -3q-10 -3 -15 4l-8 13q-3 6 -2 15l12 75q-32 5 -55.5 14t-40.5 26q-34 31 -46 81t-12 117v33q0 70 15 115t46 74q22 20 56 32.5t79 12.5q42 0 81 -13.5t62 -30.5q8 -6 1 -16l-17 -28q-5 -9 -17 -2q-56 34 -110 34q-58 0 -90 -31q-14 -14 -22 -32.5
t-12 -39t-5 -42t-1 -42.5v-17q0 -58 7 -94.5t25 -59.5q16 -20 42.5 -29t58.5 -9q26 0 50 5t47 14q20 8 24 -7z" />
    <glyph glyph-name="ccircumflex" unicode="&#x109;" horiz-adv-x="412" 
d="M372 36q3 -10 0.5 -14.5t-17.5 -10.5q-20 -8 -52.5 -14t-61.5 -6q-92 0 -138 43q-34 31 -46 81t-12 117v33q0 70 15 115t46 74q22 20 56 32.5t79 12.5q42 0 81 -13.5t62 -30.5q8 -6 1 -16l-17 -28q-5 -9 -17 -2q-56 34 -110 34q-58 0 -90 -31q-14 -14 -22 -32.5t-12 -39
t-5 -42t-1 -42.5v-17q0 -58 7 -94.5t25 -59.5q16 -20 42.5 -29t58.5 -9q26 0 50 5t47 14q20 8 24 -7zM254 728q7 0 10 -1.5t8 -6.5l105 -119q11 -12 -1 -20l-23 -16q-11 -9 -22 2l-92 96h-5l-92 -96q-11 -11 -22 -2l-23 16q-13 8 -1 20l105 119q5 5 8 6.5t10 1.5h35z" />
    <glyph glyph-name="ccaron" unicode="&#x10d;" horiz-adv-x="412" 
d="M372 36q3 -10 0.5 -14.5t-17.5 -10.5q-20 -8 -52.5 -14t-61.5 -6q-92 0 -138 43q-34 31 -46 81t-12 117v33q0 70 15 115t46 74q22 20 56 32.5t79 12.5q42 0 81 -13.5t62 -30.5q8 -6 1 -16l-17 -28q-5 -9 -17 -2q-56 34 -110 34q-58 0 -90 -31q-14 -14 -22 -32.5t-12 -39
t-5 -42t-1 -42.5v-17q0 -58 7 -94.5t25 -59.5q16 -20 42.5 -29t58.5 -9q26 0 50 5t47 14q20 8 24 -7zM219 561q-5 0 -9 1.5t-9 6.5l-107 119q-11 12 1 20l23 16q11 9 22 -2l92 -96h5l92 96q11 11 22 2l23 -16q12 -8 1 -20l-107 -119q-5 -5 -9 -6.5t-9 -1.5h-31z" />
    <glyph glyph-name="cdotaccent" unicode="&#x10b;" horiz-adv-x="412" 
d="M372 36q3 -10 0.5 -14.5t-17.5 -10.5q-20 -8 -52.5 -14t-61.5 -6q-92 0 -138 43q-34 31 -46 81t-12 117v33q0 70 15 115t46 74q22 20 56 32.5t79 12.5q42 0 81 -13.5t62 -30.5q8 -6 1 -16l-17 -28q-5 -9 -17 -2q-56 34 -110 34q-58 0 -90 -31q-14 -14 -22 -32.5t-12 -39
t-5 -42t-1 -42.5v-17q0 -58 7 -94.5t25 -59.5q16 -20 42.5 -29t58.5 -9q26 0 50 5t47 14q20 8 24 -7zM175 637q0 25 17.5 42.5t42.5 17.5t42.5 -17.5t17.5 -42.5t-17.5 -42.5t-42.5 -17.5t-42.5 17.5t-17.5 42.5z" />
    <glyph glyph-name="dcaron" unicode="&#x10f;" horiz-adv-x="496" 
d="M432 164q0 -42 -9 -70t-28 -51q-21 -25 -59 -38.5t-92 -13.5q-51 0 -88.5 10.5t-62 36.5t-36.5 70t-12 112v47q0 120 46.5 176t147.5 56q44 0 76.5 -13t49.5 -35h2v215q0 11 12 11h41q12 0 12 -11v-502zM367 310q0 62 -30 97.5t-91 35.5q-36 0 -58.5 -8t-39.5 -26
q-19 -21 -28 -56t-9 -91v-34q0 -61 8.5 -95.5t27.5 -54.5q16 -17 38 -24t58 -7t62 8.5t41 29.5q11 16 16 35.5t5 52.5v137zM542 696q17 0 26 -8.5t9 -29.5v-18q0 -69 -62 -130q-9 -9 -17 -3l-14 12q-8 7 -2 14q8 10 19 24t17 27q8 15 -8 23q-12 6 -17.5 13.5t-5.5 24.5v18
q0 17 9.5 25t24.5 8h21z" />
    <glyph glyph-name="dcroat" unicode="&#x111;" horiz-adv-x="496" 
d="M432 603h60q9 0 12 -4t3 -11v-20q0 -10 -5 -11.5t-10 -1.5h-60v-391q0 -42 -9 -70t-28 -51q-21 -25 -59 -38.5t-92 -13.5q-51 0 -88.5 10.5t-62 36.5t-36.5 70t-12 112v47q0 120 46.5 176t147.5 56q44 0 76.5 -13t49.5 -35h2v104h-109q-9 0 -12 3.5t-3 11.5v18q0 7 3 11
t12 4h109v63q0 11 12 11h41q12 0 12 -11v-63zM367 310q0 62 -30 97.5t-91 35.5q-36 0 -58.5 -8t-39.5 -26q-19 -21 -28 -56t-9 -91v-34q0 -61 8.5 -95.5t27.5 -54.5q16 -17 38 -24t58 -7t62 8.5t41 29.5q11 16 16 35.5t5 52.5v137z" />
    <glyph glyph-name="eth" unicode="&#xf0;" 
d="M165 704q55 -20 97 -51l68 43q12 7 19 -3l13 -18q7 -11 -5 -18l-55 -35q75 -66 114 -160.5t39 -205.5v-36q0 -51 -12.5 -93t-38 -72t-64.5 -47t-93 -17t-91.5 15t-61.5 43t-34.5 68.5t-10.5 92.5v33q0 101 47.5 160.5t145.5 59.5q38 0 65 -9t52 -29l2 2q-35 97 -111 162
l-84 -53q-9 -5 -13.5 -4.5t-8.5 5.5l-12 17q-9 11 8 22l69 43q-16 11 -33 20t-35 17q-6 3 -9 6.5t1 11.5l14 24q6 10 18 6zM387 236q0 84 -34 127t-101 43q-74 0 -104.5 -45t-30.5 -128v-12q0 -86 30.5 -129.5t100.5 -43.5q73 0 106 45.5t33 130.5v12z" />
    <glyph glyph-name="egrave" unicode="&#xe8;" horiz-adv-x="454" 
d="M406 246q0 -21 -8 -29.5t-29 -8.5h-258q1 -45 8.5 -76t23 -49.5t40 -27t59.5 -8.5q59 0 110 20q20 8 24 -7l7 -23q2 -8 0 -13.5t-22 -13.5q-51 -19 -119 -19q-56 0 -93.5 14t-60.5 42.5t-33 73t-10 104.5v40q0 118 41.5 176t146.5 58q86 0 129 -41q23 -22 33.5 -52
t10.5 -78v-82zM234 443q-32 0 -55 -8t-38 -28.5t-22.5 -55t-7.5 -86.5h215q8 0 11 2t3 13v38q0 36 -5 56.5t-18 36.5q-26 32 -83 32zM336 624q11 -6 5 -20l-10 -22q-4 -8 -9 -9t-16 3l-171 65q-10 5 -13.5 10t0.5 14l17 35q7 16 27 7z" />
    <glyph glyph-name="eacute" unicode="&#xe9;" horiz-adv-x="454" 
d="M406 246q0 -21 -8 -29.5t-29 -8.5h-258q1 -45 8.5 -76t23 -49.5t40 -27t59.5 -8.5q59 0 110 20q20 8 24 -7l7 -23q2 -8 0 -13.5t-22 -13.5q-51 -19 -119 -19q-56 0 -93.5 14t-60.5 42.5t-33 73t-10 104.5v40q0 118 41.5 176t146.5 58q86 0 129 -41q23 -22 33.5 -52
t10.5 -78v-82zM234 443q-32 0 -55 -8t-38 -28.5t-22.5 -55t-7.5 -86.5h215q8 0 11 2t3 13v38q0 36 -5 56.5t-18 36.5q-26 32 -83 32zM306 707q20 9 27 -7l17 -35q4 -9 0.5 -14t-13.5 -10l-171 -65q-11 -4 -16 -3t-9 9l-10 22q-6 14 5 20z" />
    <glyph glyph-name="ecircumflex" unicode="&#xea;" horiz-adv-x="454" 
d="M406 246q0 -21 -8 -29.5t-29 -8.5h-258q1 -45 8.5 -76t23 -49.5t40 -27t59.5 -8.5q59 0 110 20q20 8 24 -7l7 -23q2 -8 0 -13.5t-22 -13.5q-51 -19 -119 -19q-56 0 -93.5 14t-60.5 42.5t-33 73t-10 104.5v40q0 118 41.5 176t146.5 58q86 0 129 -41q23 -22 33.5 -52
t10.5 -78v-82zM234 443q-32 0 -55 -8t-38 -28.5t-22.5 -55t-7.5 -86.5h215q8 0 11 2t3 13v38q0 36 -5 56.5t-18 36.5q-26 32 -83 32zM252 728q7 0 10 -1.5t8 -6.5l105 -119q11 -12 -1 -20l-23 -16q-11 -9 -22 2l-92 96h-5l-92 -96q-11 -11 -22 -2l-23 16q-13 8 -1 20
l105 119q5 5 8 6.5t10 1.5h35z" />
    <glyph glyph-name="ecaron" unicode="&#x11b;" horiz-adv-x="454" 
d="M406 246q0 -21 -8 -29.5t-29 -8.5h-258q1 -45 8.5 -76t23 -49.5t40 -27t59.5 -8.5q59 0 110 20q20 8 24 -7l7 -23q2 -8 0 -13.5t-22 -13.5q-51 -19 -119 -19q-56 0 -93.5 14t-60.5 42.5t-33 73t-10 104.5v40q0 118 41.5 176t146.5 58q86 0 129 -41q23 -22 33.5 -52
t10.5 -78v-82zM234 443q-32 0 -55 -8t-38 -28.5t-22.5 -55t-7.5 -86.5h215q8 0 11 2t3 13v38q0 36 -5 56.5t-18 36.5q-26 32 -83 32zM223 561q-5 0 -9 1.5t-9 6.5l-107 119q-11 12 1 20l23 16q11 9 22 -2l92 -96h5l92 96q11 11 22 2l23 -16q12 -8 1 -20l-107 -119
q-5 -5 -9 -6.5t-9 -1.5h-31z" />
    <glyph glyph-name="edieresis" unicode="&#xeb;" horiz-adv-x="454" 
d="M406 246q0 -21 -8 -29.5t-29 -8.5h-258q1 -45 8.5 -76t23 -49.5t40 -27t59.5 -8.5q59 0 110 20q20 8 24 -7l7 -23q2 -8 0 -13.5t-22 -13.5q-51 -19 -119 -19q-56 0 -93.5 14t-60.5 42.5t-33 73t-10 104.5v40q0 118 41.5 176t146.5 58q86 0 129 -41q23 -22 33.5 -52
t10.5 -78v-82zM234 443q-32 0 -55 -8t-38 -28.5t-22.5 -55t-7.5 -86.5h215q8 0 11 2t3 13v38q0 36 -5 56.5t-18 36.5q-26 32 -83 32zM161 691q20 0 32 -10t12 -29v-23q0 -20 -12 -29.5t-32 -9.5h-10q-19 0 -30.5 9.5t-11.5 29.5v23q0 19 11.5 29t30.5 10h10zM323 691
q43 0 43 -39v-23q0 -39 -43 -39h-10q-19 0 -30.5 9.5t-11.5 29.5v23q0 19 11.5 29t30.5 10h10z" />
    <glyph glyph-name="emacron" unicode="&#x113;" horiz-adv-x="454" 
d="M406 246q0 -21 -8 -29.5t-29 -8.5h-258q1 -45 8.5 -76t23 -49.5t40 -27t59.5 -8.5q59 0 110 20q20 8 24 -7l7 -23q2 -8 0 -13.5t-22 -13.5q-51 -19 -119 -19q-56 0 -93.5 14t-60.5 42.5t-33 73t-10 104.5v40q0 118 41.5 176t146.5 58q86 0 129 -41q23 -22 33.5 -52
t10.5 -78v-82zM234 443q-32 0 -55 -8t-38 -28.5t-22.5 -55t-7.5 -86.5h215q8 0 11 2t3 13v38q0 36 -5 56.5t-18 36.5q-26 32 -83 32zM344 669q9 0 12 -4t3 -11v-35q0 -10 -5 -11.5t-10 -1.5h-225q-9 0 -12 3.5t-3 11.5v33q0 7 3 11t12 4h225z" />
    <glyph glyph-name="ebreve" unicode="&#x115;" horiz-adv-x="454" 
d="M406 246q0 -21 -8 -29.5t-29 -8.5h-258q1 -45 8.5 -76t23 -49.5t40 -27t59.5 -8.5q59 0 110 20q20 8 24 -7l7 -23q2 -8 0 -13.5t-22 -13.5q-51 -19 -119 -19q-56 0 -93.5 14t-60.5 42.5t-33 73t-10 104.5v40q0 118 41.5 176t146.5 58q86 0 129 -41q23 -22 33.5 -52
t10.5 -78v-82zM234 443q-32 0 -55 -8t-38 -28.5t-22.5 -55t-7.5 -86.5h215q8 0 11 2t3 13v38q0 36 -5 56.5t-18 36.5q-26 32 -83 32zM325 693q2 8 5.5 9.5t13.5 -1.5l28 -8q13 -4 9 -18q-15 -55 -54.5 -82.5t-90.5 -27.5t-90.5 27.5t-54.5 82.5q-4 14 9 18l28 8
q10 3 13.5 1.5t5.5 -9.5q12 -39 34.5 -56t54.5 -17t55 17.5t34 55.5z" />
    <glyph glyph-name="edotaccent" unicode="&#x117;" horiz-adv-x="454" 
d="M406 246q0 -21 -8 -29.5t-29 -8.5h-258q1 -45 8.5 -76t23 -49.5t40 -27t59.5 -8.5q59 0 110 20q20 8 24 -7l7 -23q2 -8 0 -13.5t-22 -13.5q-51 -19 -119 -19q-56 0 -93.5 14t-60.5 42.5t-33 73t-10 104.5v40q0 118 41.5 176t146.5 58q86 0 129 -41q23 -22 33.5 -52
t10.5 -78v-82zM234 443q-32 0 -55 -8t-38 -28.5t-22.5 -55t-7.5 -86.5h215q8 0 11 2t3 13v38q0 36 -5 56.5t-18 36.5q-26 32 -83 32zM175 637q0 25 17.5 42.5t42.5 17.5t42.5 -17.5t17.5 -42.5t-17.5 -42.5t-42.5 -17.5t-42.5 17.5t-17.5 42.5z" />
    <glyph glyph-name="eogonek" unicode="&#x119;" horiz-adv-x="454" 
d="M406 249q0 -22 -9 -31.5t-30 -9.5h-256q1 -45 8.5 -76t23 -50t40 -27.5t59.5 -8.5q59 0 110 20q20 8 24 -7l6 -19q3 -9 -3.5 -15t-17.5 -15q-25 -20 -41 -35.5t-25.5 -29.5t-13 -27t-3.5 -26q0 -36 43 -36q13 0 25.5 3t22.5 8q11 5 14 -5l6 -28q3 -10 -8 -15
q-16 -7 -32.5 -11t-41.5 -4q-45 0 -70.5 18.5t-25.5 56.5q0 29 19.5 60.5t59.5 55.5q-11 -2 -24 -3t-24 -1q-56 0 -93.5 14t-60.5 42.5t-33 73t-10 104.5v40q0 118 41.5 176t146.5 58q86 0 129 -41q23 -22 33.5 -52t10.5 -78v-79zM234 444q-32 0 -55 -8.5t-38 -28.5
t-22.5 -55t-7.5 -87h215q8 0 11 2t3 13v38q0 36 -5 57t-18 37q-26 32 -83 32z" />
    <glyph glyph-name="gcircumflex" unicode="&#x11d;" horiz-adv-x="474" 
d="M371 140q-13 -13 -26 -20q86 -55 86 -140v-11q0 -42 -15 -71.5t-42 -48.5t-64 -27.5t-81 -8.5q-46 0 -94 11t-87 30q-10 5 -8 16l11 30q2 6 7 7.5t11 -1.5q77 -37 153 -37q71 0 105 21.5t34 81.5v8q0 42 -18 70t-56 48q-14 -3 -28 -4t-31 -1q-85 0 -133 37
q-52 45 -52 146v41q0 104 52 147q23 19 58 27t75 8h16t16 -1q11 32 37.5 52.5t74.5 20.5h24q14 0 14 -14v-34q0 -5 -1.5 -8t-10.5 -3h-30q-15 0 -28.5 -4.5t-21.5 -20.5q12 -5 23 -10t21 -13q52 -43 52 -147v-41q0 -46 -11.5 -79.5t-31.5 -56.5zM111 284q0 -48 11 -79
q12 -34 38 -47.5t68 -13.5q43 0 69.5 13.5t38.5 47.5q10 29 10 80v25q0 24 -2.5 44t-7.5 34q-12 35 -38.5 47.5t-69.5 12.5q-42 0 -68 -12.5t-38 -47.5q-11 -30 -11 -78v-26zM254 773q7 0 10 -1.5t8 -6.5l105 -119q11 -12 -1 -20l-23 -16q-11 -9 -22 2l-92 96h-5l-92 -96
q-11 -11 -22 -2l-23 16q-13 8 -1 20l105 119q5 5 8 6.5t10 1.5h35z" />
    <glyph glyph-name="gbreve" unicode="&#x11f;" horiz-adv-x="474" 
d="M371 140q-13 -13 -26 -20q86 -55 86 -140v-11q0 -42 -15 -71.5t-42 -48.5t-64 -27.5t-81 -8.5q-46 0 -94 11t-87 30q-10 5 -8 16l11 30q2 6 7 7.5t11 -1.5q77 -37 153 -37q71 0 105 21.5t34 81.5v8q0 42 -18 70t-56 48q-14 -3 -28 -4t-31 -1q-85 0 -133 37
q-52 45 -52 146v41q0 104 52 147q23 19 58 27t75 8h16t16 -1q11 32 37.5 52.5t74.5 20.5h24q14 0 14 -14v-34q0 -5 -1.5 -8t-10.5 -3h-30q-15 0 -28.5 -4.5t-21.5 -20.5q12 -5 23 -10t21 -13q52 -43 52 -147v-41q0 -46 -11.5 -79.5t-31.5 -56.5zM111 284q0 -48 11 -79
q12 -34 38 -47.5t68 -13.5q43 0 69.5 13.5t38.5 47.5q10 29 10 80v25q0 24 -2.5 44t-7.5 34q-12 35 -38.5 47.5t-69.5 12.5q-42 0 -68 -12.5t-38 -47.5q-11 -30 -11 -78v-26zM326 727q2 8 5.5 9.5t13.5 -1.5l28 -8q13 -4 9 -18q-15 -55 -54.5 -82.5t-90.5 -27.5t-90.5 27.5
t-54.5 82.5q-4 14 9 18l28 8q10 3 13.5 1.5t5.5 -9.5q12 -39 34.5 -56t54.5 -17t55 17.5t34 55.5z" />
    <glyph glyph-name="gdotaccent" unicode="&#x121;" horiz-adv-x="474" 
d="M371 140q-13 -13 -26 -20q86 -55 86 -140v-11q0 -42 -15 -71.5t-42 -48.5t-64 -27.5t-81 -8.5q-46 0 -94 11t-87 30q-10 5 -8 16l11 30q2 6 7 7.5t11 -1.5q77 -37 153 -37q71 0 105 21.5t34 81.5v8q0 42 -18 70t-56 48q-14 -3 -28 -4t-31 -1q-85 0 -133 37
q-52 45 -52 146v41q0 104 52 147q23 19 58 27t75 8h16t16 -1q11 32 37.5 52.5t74.5 20.5h24q14 0 14 -14v-34q0 -5 -1.5 -8t-10.5 -3h-30q-15 0 -28.5 -4.5t-21.5 -20.5q12 -5 23 -10t21 -13q52 -43 52 -147v-41q0 -46 -11.5 -79.5t-31.5 -56.5zM111 284q0 -48 11 -79
q12 -34 38 -47.5t68 -13.5q43 0 69.5 13.5t38.5 47.5q10 29 10 80v25q0 24 -2.5 44t-7.5 34q-12 35 -38.5 47.5t-69.5 12.5q-42 0 -68 -12.5t-38 -47.5q-11 -30 -11 -78v-26zM169 672q0 25 17.5 42.5t42.5 17.5t42.5 -17.5t17.5 -42.5t-17.5 -42.5t-42.5 -17.5t-42.5 17.5
t-17.5 42.5z" />
    <glyph glyph-name="gcommaaccent" unicode="&#x123;" horiz-adv-x="474" 
d="M371 140q-13 -13 -26 -20q86 -55 86 -140v-11q0 -42 -15 -71.5t-42 -48.5t-64 -27.5t-81 -8.5q-46 0 -94 11t-87 30q-10 5 -8 16l11 30q2 6 7 7.5t11 -1.5q77 -37 153 -37q71 0 105 21.5t34 81.5v8q0 42 -18 70t-56 48q-14 -3 -28 -4t-31 -1q-85 0 -133 37
q-52 45 -52 146v41q0 104 52 147q23 19 58 27t75 8h16t16 -1q11 32 37.5 52.5t74.5 20.5h24q14 0 14 -14v-34q0 -5 -1.5 -8t-10.5 -3h-30q-15 0 -28.5 -4.5t-21.5 -20.5q12 -5 23 -10t21 -13q52 -43 52 -147v-41q0 -46 -11.5 -79.5t-31.5 -56.5zM111 284q0 -48 11 -79
q12 -34 38 -47.5t68 -13.5q43 0 69.5 13.5t38.5 47.5q10 29 10 80v25q0 24 -2.5 44t-7.5 34q-12 35 -38.5 47.5t-69.5 12.5q-42 0 -68 -12.5t-38 -47.5q-11 -30 -11 -78v-26zM217.986 595.964q-16.999 0 -25.998 8.49902q-8.99902 8.5 -8.99902 29.498v17.999
q0 68.9961 61.9961 129.992q8.99902 9 16.999 3l13.999 -11.999q7.99902 -7 2 -13.999q-8 -10 -18.999 -23.999q-11 -13.999 -16.999 -26.998q-8 -14.999 7.99902 -22.999q12 -5.99902 17.499 -13.499q5.5 -7.5 5.5 -24.498v-17.999q0 -16.999 -9.49902 -24.999
q-9.5 -7.99902 -24.499 -7.99902h-20.999z" />
    <glyph glyph-name="hcircumflex" unicode="&#x125;" horiz-adv-x="504" 
d="M132 447q8 10 15 16t20 14q20 11 44 16.5t50 5.5q57 0 96 -16.5t59 -50.5q14 -23 19 -55t5 -74v-289q0 -9 -4.5 -11.5t-13.5 -2.5h-29q-18 0 -18 14v293q0 46 -10 73.5t-36 43.5q-30 19 -81 19q-70 0 -98 -42q-9 -14 -13.5 -31t-4.5 -47v-308q0 -8 -3.5 -11.5t-14.5 -3.5
h-31q-16 0 -16 15v651q0 11 12 11h41q12 0 12 -11v-219zM118 855q7 0 10 -1.5t8 -6.5l105 -119q11 -12 -1 -20l-23 -16q-11 -9 -22 2l-92 96h-5l-92 -96q-11 -11 -22 -2l-23 16q-13 8 -1 20l105 119q5 5 8 6.5t10 1.5h35z" />
    <glyph glyph-name="hbar" unicode="&#x127;" horiz-adv-x="504" 
d="M132 603h115q9 0 12 -4t3 -11v-20q0 -10 -5 -11.5t-10 -1.5h-115v-108q8 10 15 16t20 14q20 11 44 16.5t50 5.5q57 0 96 -16.5t59 -50.5q14 -23 19 -55t5 -74v-289q0 -9 -4.5 -11.5t-13.5 -2.5h-29q-18 0 -18 14v293q0 46 -10 73.5t-36 43.5q-30 19 -81 19q-70 0 -98 -42
q-9 -14 -13.5 -31t-4.5 -47v-308q0 -8 -3.5 -11.5t-14.5 -3.5h-31q-16 0 -16 15v540h-54q-9 0 -12 3.5t-3 11.5v18q0 7 3 11t12 4h54v63q0 11 12 11h41q12 0 12 -11v-63z" />
    <glyph glyph-name="dotlessi" unicode="&#x131;" horiz-adv-x="229" 
d="M147 8q0 -8 -9 -8h-48q-8 0 -8 8v471q0 11 12 11h41q12 0 12 -11v-471z" />
    <glyph glyph-name="igrave" unicode="&#xec;" horiz-adv-x="229" 
d="M147 8q0 -8 -9 -8h-48q-8 0 -8 8v471q0 11 12 11h41q12 0 12 -11v-471zM192 624q11 -6 5 -20l-10 -22q-4 -8 -9 -9t-16 3l-171 65q-10 5 -13.5 10t0.5 14l17 35q7 16 27 7z" />
    <glyph glyph-name="iacute" unicode="&#xed;" horiz-adv-x="229" 
d="M147 8q0 -8 -9 -8h-48q-8 0 -8 8v471q0 11 12 11h41q12 0 12 -11v-471zM207 707q20 9 27 -7l17 -35q4 -9 0.5 -14t-13.5 -10l-171 -65q-11 -4 -16 -3t-9 9l-10 22q-6 14 5 20z" />
    <glyph glyph-name="icircumflex" unicode="&#xee;" horiz-adv-x="229" 
d="M147 8q0 -8 -9 -8h-48q-8 0 -8 8v471q0 11 12 11h41q12 0 12 -11v-471zM132 728q7 0 10 -1.5t8 -6.5l105 -119q11 -12 -1 -20l-23 -16q-11 -9 -22 2l-92 96h-5l-92 -96q-11 -11 -22 -2l-23 16q-13 8 -1 20l105 119q5 5 8 6.5t10 1.5h35z" />
    <glyph glyph-name="itilde" unicode="&#x129;" horiz-adv-x="229" 
d="M147 8q0 -8 -9 -8h-48q-8 0 -8 8v471q0 11 12 11h41q12 0 12 -11v-471zM-45 602q-7 4 -3 13q20 40 46.5 60.5t55.5 20.5q17 0 31 -5t28 -15l28 -20q12 -9 19.5 -12.5t16.5 -3.5q23 0 53 45q6 10 15 4l26 -16q10 -6 5 -15q-20 -36 -47 -57.5t-56 -21.5q-32 0 -58 19
l-28 20q-11 8 -18.5 12t-18.5 4q-14 0 -26.5 -10.5t-26.5 -34.5q-4 -7 -7.5 -7t-9.5 4z" />
    <glyph glyph-name="idieresis" unicode="&#xef;" horiz-adv-x="229" 
d="M147 8q0 -8 -9 -8h-48q-8 0 -8 8v471q0 11 12 11h41q12 0 12 -11v-471zM38 691q20 0 32 -10t12 -29v-23q0 -20 -12 -29.5t-32 -9.5h-10q-19 0 -30.5 9.5t-11.5 29.5v23q0 19 11.5 29t30.5 10h10zM200 691q43 0 43 -39v-23q0 -39 -43 -39h-10q-19 0 -30.5 9.5t-11.5 29.5
v23q0 19 11.5 29t30.5 10h10z" />
    <glyph glyph-name="imacron" unicode="&#x12b;" horiz-adv-x="229" 
d="M147 8q0 -8 -9 -8h-48q-8 0 -8 8v471q0 11 12 11h41q12 0 12 -11v-471zM227 669q9 0 12 -4t3 -11v-35q0 -10 -5 -11.5t-10 -1.5h-225q-9 0 -12 3.5t-3 11.5v33q0 7 3 11t12 4h225z" />
    <glyph glyph-name="ibreve" unicode="&#x12d;" horiz-adv-x="229" 
d="M147 8q0 -8 -9 -8h-48q-8 0 -8 8v471q0 11 12 11h41q12 0 12 -11v-471zM203 693q2 8 5.5 9.5t13.5 -1.5l28 -8q13 -4 9 -18q-15 -55 -54.5 -82.5t-90.5 -27.5t-90.5 27.5t-54.5 82.5q-4 14 9 18l28 8q10 3 13.5 1.5t5.5 -9.5q12 -39 34.5 -56t54.5 -17t55 17.5t34 55.5z
" />
    <glyph glyph-name="iogonek" unicode="&#x12f;" horiz-adv-x="229" 
d="M147 11q0 -7 -5 -10q-23 -15 -38 -30t-23.5 -28.5t-11.5 -26t-3 -24.5q0 -36 43 -36q13 0 25.5 3t22.5 8q11 5 14 -5l6 -28q3 -10 -8 -15q-16 -7 -32.5 -11t-41.5 -4q-45 0 -70.5 18.5t-25.5 56.5q0 41 23.5 71t59.5 53v476q0 11 12 11h41q12 0 12 -11v-468zM161 616
q0 -25 -12 -36.5t-32 -11.5h-4q-25 0 -35.5 11.5t-10.5 36.5v6q0 26 13 36.5t33 10.5h4q20 0 32 -10.5t12 -36.5v-6z" />
    <glyph glyph-name="ij" unicode="&#x133;" horiz-adv-x="459" 
d="M147 8q0 -8 -9 -8h-48q-8 0 -8 8v471q0 11 12 11h41q12 0 12 -11v-471zM161 616q0 -25 -12 -36.5t-32 -11.5h-4q-25 0 -35.5 11.5t-10.5 36.5v6q0 26 13 36.5t33 10.5h4q20 0 32 -10.5t12 -36.5v-6zM377 6q0 -35 -5.5 -64t-19.5 -52q-18 -32 -49 -50t-86 -18h-36
q-11 0 -11 12v33q0 12 11 12h34q61 0 82 46q15 33 15 86v468q0 11 12 11h41q12 0 12 -11v-473zM391 616q0 -25 -12 -36.5t-32 -11.5h-4q-25 0 -35.5 11.5t-10.5 36.5v6q0 26 13 36.5t33 10.5h4q20 0 32 -10.5t12 -36.5v-6z" />
    <glyph glyph-name="jcircumflex" unicode="&#x135;" horiz-adv-x="229" 
d="M147 9q0 -35 -5.5 -64t-19.5 -52q-18 -32 -49 -50t-86 -18h-36q-11 0 -11 12v33q0 12 11 12h34q61 0 82 46q15 33 15 86v465q0 11 12 11h41q12 0 12 -11v-470zM132 728q7 0 10 -1.5t8 -6.5l105 -119q11 -12 -1 -20l-23 -16q-11 -9 -22 2l-92 96h-5l-92 -96
q-11 -11 -22 -2l-23 16q-13 8 -1 20l105 119q5 5 8 6.5t10 1.5h35z" />
    <glyph glyph-name="kcommaaccent" unicode="&#x137;" horiz-adv-x="419" 
d="M132 290h50q8 0 13.5 2.5t12.5 13.5l116 173q7 11 19 11h43q6 0 9 -4t-2 -12l-142 -206q-5 -8 0 -16l147 -241q6 -11 -7 -11h-52q-8 0 -12 7l-126 213q-3 5 -7.5 8t-13.5 3h-48v-223q0 -8 -9 -8h-47q-9 0 -9 8v658q0 11 12 11h41q12 0 12 -11v-376zM218 -69q17 0 26 -8.5
t9 -29.5v-18q0 -69 -62 -130q-9 -9 -17 -3l-14 12q-8 7 -2 14q8 10 19 24t17 27q8 15 -8 23q-12 6 -17.5 13.5t-5.5 24.5v18q0 17 9.5 25t24.5 8h21z" />
    <glyph glyph-name="kgreenlandic" unicode="&#x138;" horiz-adv-x="419" 
d="M131 8q0 -8 -9 -8h-46q-9 0 -9 8v471q0 11 13 11h39q12 0 12 -11v-189h51q8 0 13.5 2.5t12.5 13.5l116 173q7 11 19 11h43q6 0 9 -4t-2 -12l-142 -206q-5 -8 0 -16l147 -241q6 -11 -7 -11h-52q-8 0 -12 7l-126 213q-3 5 -7.5 8t-13.5 3h-49v-223z" />
    <glyph glyph-name="lacute" unicode="&#x13a;" horiz-adv-x="252" 
d="M137 131q0 -24 1 -39.5t8 -23.5q8 -11 36 -11h27q5 0 8.5 -1.5t3.5 -9.5v-34q0 -12 -10 -12h-38q-54 0 -77 23q-24 25 -24 92v551q0 11 12 11h41q12 0 12 -11v-535zM220 845q20 9 27 -7l17 -35q4 -9 0.5 -14t-13.5 -10l-171 -65q-11 -4 -16 -3t-9 9l-10 22q-6 14 5 20z
" />
    <glyph glyph-name="lcaron" unicode="&#x13e;" horiz-adv-x="252" 
d="M239 691q17 0 26 -8.5t9 -29.5v-22q0 -61 -51 -115q-9 -9 -17 -3l-14 12q-8 7 -2 14q6 8 12.5 16.5t12.5 19.5q8 15 -8 23q-12 6 -17.5 13.5t-5.5 24.5v22q0 17 9.5 25t24.5 8h21zM137 131q0 -24 1 -39.5t8 -23.5q8 -11 36 -11h27q5 0 8.5 -1.5t3.5 -9.5v-34
q0 -12 -10 -12h-38q-54 0 -77 23q-24 25 -24 92v551q0 11 12 11h41q12 0 12 -11v-535z" />
    <glyph glyph-name="lcommaaccent" unicode="&#x13c;" horiz-adv-x="252" 
d="M137 131q0 -24 1 -39.5t8 -23.5q8 -11 36 -11h27q5 0 8.5 -1.5t3.5 -9.5v-34q0 -12 -10 -12h-38q-54 0 -77 23q-24 25 -24 92v551q0 11 12 11h41q12 0 12 -11v-535zM162 -69q17 0 26 -8.5t9 -29.5v-18q0 -69 -62 -130q-9 -9 -17 -3l-14 12q-8 7 -2 14q8 10 19 24t17 27
q8 15 -8 23q-12 6 -17.5 13.5t-5.5 24.5v18q0 17 9.5 25t24.5 8h21z" />
    <glyph glyph-name="lslash" unicode="&#x142;" horiz-adv-x="252" 
d="M137 408l99 65q17 10 17 -11v-35q0 -9 -2.5 -15t-12.5 -13l-101 -67v-201q0 -24 1 -39.5t8 -23.5q8 -11 36 -11h27q5 0 8.5 -1.5t3.5 -9.5v-34q0 -12 -10 -12h-38q-54 0 -77 23q-24 25 -24 92v174l-69 -45q-17 -10 -17 11v35q0 9 2.5 15t12.5 13l71 47v301q0 11 12 11h41
q12 0 12 -11v-258z" />
    <glyph glyph-name="longs" unicode="&#x17f;" horiz-adv-x="290" 
d="M103 0q-12 0 -12 12v421h-61q-10 0 -10 11v20q0 12 10 13l61 13v31q0 32 5 57t16 44q12 19 28.5 31.5t35 20t37 10t33.5 2.5q31 0 48.5 -2.5t31.5 -6.5q13 -4 12 -15l-5 -26q-3 -13 -17 -10q-14 2 -27.5 4t-32.5 2q-21 0 -39.5 -4.5t-30.5 -14.5q-17 -13 -23.5 -34.5
t-6.5 -56.5v-510q0 -12 -11 -12h-42z" />
    <glyph glyph-name="ldot" unicode="&#x140;" horiz-adv-x="363" 
d="M137 131q0 -24 1 -39.5t8 -23.5q8 -11 36 -11h27q5 0 8.5 -1.5t3.5 -9.5v-34q0 -12 -10 -12h-38q-54 0 -77 23q-24 25 -24 92v551q0 11 12 11h41q12 0 12 -11v-535zM224 365q0 25 17.5 42.5t42.5 17.5t42.5 -17.5t17.5 -42.5t-17.5 -42.5t-42.5 -17.5t-42.5 17.5
t-17.5 42.5z" />
    <glyph glyph-name="nacute" unicode="&#x144;" horiz-adv-x="506" 
d="M442 17q0 -11 -5.5 -14t-13.5 -3h-28q-12 0 -15 3t-3 14v292q0 46 -10 73.5t-36 43.5q-30 19 -81 19q-70 0 -98 -42q-9 -14 -13.5 -31t-4.5 -47v-310q0 -15 -18 -15h-31q-16 0 -16 15v464q0 11 10 11h30q11 0 12 -11l5 -40h2q7 11 17.5 20.5t23.5 17.5q20 11 44 16.5
t50 5.5q57 0 96 -16.5t59 -50.5q14 -23 19 -55t5 -74v-286v0zM341 707q20 9 27 -7l17 -35q4 -9 0.5 -14t-13.5 -10l-171 -65q-11 -4 -16 -3t-9 9l-10 22q-6 14 5 20z" />
    <glyph glyph-name="ncaron" unicode="&#x148;" horiz-adv-x="506" 
d="M442 17q0 -11 -5.5 -14t-13.5 -3h-28q-12 0 -15 3t-3 14v292q0 46 -10 73.5t-36 43.5q-30 19 -81 19q-70 0 -98 -42q-9 -14 -13.5 -31t-4.5 -47v-310q0 -15 -18 -15h-31q-16 0 -16 15v464q0 11 10 11h30q11 0 12 -11l5 -40h2q7 11 17.5 20.5t23.5 17.5q20 11 44 16.5
t50 5.5q57 0 96 -16.5t59 -50.5q14 -23 19 -55t5 -74v-286v0zM243 561q-5 0 -9 1.5t-9 6.5l-107 119q-11 12 1 20l23 16q11 9 22 -2l92 -96h5l92 96q11 11 22 2l23 -16q12 -8 1 -20l-107 -119q-5 -5 -9 -6.5t-9 -1.5h-31z" />
    <glyph glyph-name="ntilde" unicode="&#xf1;" horiz-adv-x="506" 
d="M442 17q0 -11 -5.5 -14t-13.5 -3h-28q-12 0 -15 3t-3 14v292q0 46 -10 73.5t-36 43.5q-30 19 -81 19q-70 0 -98 -42q-9 -14 -13.5 -31t-4.5 -47v-310q0 -15 -18 -15h-31q-16 0 -16 15v464q0 11 10 11h30q11 0 12 -11l5 -40h2q7 11 17.5 20.5t23.5 17.5q20 11 44 16.5
t50 5.5q57 0 96 -16.5t59 -50.5q14 -23 19 -55t5 -74v-286v0zM100 602q-7 4 -3 13q20 40 46.5 60.5t55.5 20.5q17 0 31 -5t28 -15l28 -20q12 -9 19.5 -12.5t16.5 -3.5q23 0 53 45q6 10 15 4l26 -16q10 -6 5 -15q-20 -36 -47 -57.5t-56 -21.5q-32 0 -58 19l-28 20
q-11 8 -18.5 12t-18.5 4q-14 0 -26.5 -10.5t-26.5 -34.5q-4 -7 -7.5 -7t-9.5 4z" />
    <glyph glyph-name="ncommaaccent" unicode="&#x146;" horiz-adv-x="506" 
d="M442 17q0 -11 -5.5 -14t-13.5 -3h-28q-12 0 -15 3t-3 14v292q0 46 -10 73.5t-36 43.5q-30 19 -81 19q-70 0 -98 -42q-9 -14 -13.5 -31t-4.5 -47v-310q0 -15 -18 -15h-31q-16 0 -16 15v464q0 11 10 11h30q11 0 12 -11l5 -40h2q7 11 17.5 20.5t23.5 17.5q20 11 44 16.5
t50 5.5q57 0 96 -16.5t59 -50.5q14 -23 19 -55t5 -74v-286v0zM261 -69q17 0 26 -8.5t9 -29.5v-18q0 -69 -62 -130q-9 -9 -17 -3l-14 12q-8 7 -2 14q8 10 19 24t17 27q8 15 -8 23q-12 6 -17.5 13.5t-5.5 24.5v18q0 17 9.5 25t24.5 8h21z" />
    <glyph glyph-name="napostrophe" unicode="&#x149;" horiz-adv-x="506" 
d="M442 17q0 -11 -5.5 -14t-13.5 -3h-28q-12 0 -15 3t-3 14v292q0 46 -10 73.5t-36 43.5q-30 19 -81 19q-70 0 -98 -42q-9 -14 -13.5 -31t-4.5 -47v-310q0 -15 -18 -15h-31q-16 0 -16 15v464q0 11 10 11h30q11 0 12 -11l5 -40h2q7 11 17.5 20.5t23.5 17.5q20 11 44 16.5
t50 5.5q57 0 96 -16.5t59 -50.5q14 -23 19 -55t5 -74v-286v0zM-5 687q22 0 34.5 -11.5t12.5 -39.5v-19q0 -17 -3.5 -35.5t-9.5 -36.5q-16 -43 -42 -75q-6 -8 -11 -8t-10 3l-18 11q-11 6 -1 19q5 8 10 16.5t10 16.5q10 18 14 34q4 13 -5 18l-18 9q-11 6 -15 15t-4 26v19
q0 38 41 38h15z" />
    <glyph glyph-name="eng" unicode="&#x14b;" horiz-adv-x="506" 
d="M442 37q0 -60 -8.5 -95t-28.5 -58q-18 -21 -46 -30.5t-65 -9.5h-36q-11 0 -11 12v33q0 12 11 12h34q41 0 62 24q14 16 18.5 41t4.5 76v267q0 46 -10 73.5t-36 43.5q-30 19 -81 19q-70 0 -98 -42q-9 -14 -13.5 -31t-4.5 -47v-310q0 -7 -3 -11t-12 -4h-34q-16 0 -16 15v465
q0 10 11 10h30q12 0 13 -10l3 -41h2q7 11 17.5 20.5t23.5 17.5q20 11 44 16.5t50 5.5q57 0 96 -16.5t59 -50.5q14 -23 19 -55t5 -74v-266z" />
    <glyph glyph-name="ograve" unicode="&#xf2;" horiz-adv-x="475" 
d="M111 236q0 -31 2.5 -61t7.5 -49q13 -45 42 -62t74 -17t74.5 17t42.5 62q5 19 7.5 49t2.5 61v19q0 31 -2.5 61t-7.5 49q-13 45 -42.5 61.5t-74.5 16.5t-74 -16.5t-42 -61.5q-5 -19 -7.5 -49t-2.5 -61v-19zM430 225q0 -67 -12 -113t-40 -74q-48 -47 -141 -47q-92 0 -140 47
q-28 28 -40 74t-12 113v40q0 67 12 113.5t40 74.5q25 24 61 35t79 11q45 0 80.5 -11t60.5 -35q28 -28 40 -74.5t12 -113.5v-40zM339 624q11 -6 5 -20l-10 -22q-4 -8 -9 -9t-16 3l-171 65q-10 5 -13.5 10t0.5 14l17 35q7 16 27 7z" />
    <glyph glyph-name="oacute" unicode="&#xf3;" horiz-adv-x="475" 
d="M111 236q0 -31 2.5 -61t7.5 -49q13 -45 42 -62t74 -17t74.5 17t42.5 62q5 19 7.5 49t2.5 61v19q0 31 -2.5 61t-7.5 49q-13 45 -42.5 61.5t-74.5 16.5t-74 -16.5t-42 -61.5q-5 -19 -7.5 -49t-2.5 -61v-19zM430 225q0 -67 -12 -113t-40 -74q-48 -47 -141 -47q-92 0 -140 47
q-28 28 -40 74t-12 113v40q0 67 12 113.5t40 74.5q25 24 61 35t79 11q45 0 80.5 -11t60.5 -35q28 -28 40 -74.5t12 -113.5v-40zM311 707q20 9 27 -7l17 -35q4 -9 0.5 -14t-13.5 -10l-171 -65q-11 -4 -16 -3t-9 9l-10 22q-6 14 5 20z" />
    <glyph glyph-name="ocircumflex" unicode="&#xf4;" horiz-adv-x="475" 
d="M111 236q0 -31 2.5 -61t7.5 -49q13 -45 42 -62t74 -17t74.5 17t42.5 62q5 19 7.5 49t2.5 61v19q0 31 -2.5 61t-7.5 49q-13 45 -42.5 61.5t-74.5 16.5t-74 -16.5t-42 -61.5q-5 -19 -7.5 -49t-2.5 -61v-19zM430 225q0 -67 -12 -113t-40 -74q-48 -47 -141 -47q-92 0 -140 47
q-28 28 -40 74t-12 113v40q0 67 12 113.5t40 74.5q25 24 61 35t79 11q45 0 80.5 -11t60.5 -35q28 -28 40 -74.5t12 -113.5v-40zM257 728q7 0 10 -1.5t8 -6.5l105 -119q11 -12 -1 -20l-23 -16q-11 -9 -22 2l-92 96h-5l-92 -96q-11 -11 -22 -2l-23 16q-13 8 -1 20l105 119
q5 5 8 6.5t10 1.5h35z" />
    <glyph glyph-name="otilde" unicode="&#xf5;" horiz-adv-x="475" 
d="M111 236q0 -31 2.5 -61t7.5 -49q13 -45 42 -62t74 -17t74.5 17t42.5 62q5 19 7.5 49t2.5 61v19q0 31 -2.5 61t-7.5 49q-13 45 -42.5 61.5t-74.5 16.5t-74 -16.5t-42 -61.5q-5 -19 -7.5 -49t-2.5 -61v-19zM430 225q0 -67 -12 -113t-40 -74q-48 -47 -141 -47q-92 0 -140 47
q-28 28 -40 74t-12 113v40q0 67 12 113.5t40 74.5q25 24 61 35t79 11q45 0 80.5 -11t60.5 -35q28 -28 40 -74.5t12 -113.5v-40zM80 602q-7 4 -3 13q20 40 46.5 60.5t55.5 20.5q17 0 31 -5t28 -15l28 -20q12 -9 19.5 -12.5t16.5 -3.5q23 0 53 45q6 10 15 4l26 -16
q10 -6 5 -15q-20 -36 -47 -57.5t-56 -21.5q-32 0 -58 19l-28 20q-11 8 -18.5 12t-18.5 4q-14 0 -26.5 -10.5t-26.5 -34.5q-4 -7 -7.5 -7t-9.5 4z" />
    <glyph glyph-name="odieresis" unicode="&#xf6;" horiz-adv-x="475" 
d="M111 236q0 -31 2.5 -61t7.5 -49q13 -45 42 -62t74 -17t74.5 17t42.5 62q5 19 7.5 49t2.5 61v19q0 31 -2.5 61t-7.5 49q-13 45 -42.5 61.5t-74.5 16.5t-74 -16.5t-42 -61.5q-5 -19 -7.5 -49t-2.5 -61v-19zM430 225q0 -67 -12 -113t-40 -74q-48 -47 -141 -47q-92 0 -140 47
q-28 28 -40 74t-12 113v40q0 67 12 113.5t40 74.5q25 24 61 35t79 11q45 0 80.5 -11t60.5 -35q28 -28 40 -74.5t12 -113.5v-40zM162 691q20 0 32 -10t12 -29v-23q0 -20 -12 -29.5t-32 -9.5h-10q-19 0 -30.5 9.5t-11.5 29.5v23q0 19 11.5 29t30.5 10h10zM324 691q43 0 43 -39
v-23q0 -39 -43 -39h-10q-19 0 -30.5 9.5t-11.5 29.5v23q0 19 11.5 29t30.5 10h10z" />
    <glyph glyph-name="omacron" unicode="&#x14d;" horiz-adv-x="475" 
d="M111 236q0 -31 2.5 -61t7.5 -49q13 -45 42 -62t74 -17t74.5 17t42.5 62q5 19 7.5 49t2.5 61v19q0 31 -2.5 61t-7.5 49q-13 45 -42.5 61.5t-74.5 16.5t-74 -16.5t-42 -61.5q-5 -19 -7.5 -49t-2.5 -61v-19zM430 225q0 -67 -12 -113t-40 -74q-48 -47 -141 -47q-92 0 -140 47
q-28 28 -40 74t-12 113v40q0 67 12 113.5t40 74.5q25 24 61 35t79 11q45 0 80.5 -11t60.5 -35q28 -28 40 -74.5t12 -113.5v-40zM350 669q9 0 12 -4t3 -11v-35q0 -10 -5 -11.5t-10 -1.5h-225q-9 0 -12 3.5t-3 11.5v33q0 7 3 11t12 4h225z" />
    <glyph glyph-name="obreve" unicode="&#x14f;" horiz-adv-x="475" 
d="M111 236q0 -31 2.5 -61t7.5 -49q13 -45 42 -62t74 -17t74.5 17t42.5 62q5 19 7.5 49t2.5 61v19q0 31 -2.5 61t-7.5 49q-13 45 -42.5 61.5t-74.5 16.5t-74 -16.5t-42 -61.5q-5 -19 -7.5 -49t-2.5 -61v-19zM430 225q0 -67 -12 -113t-40 -74q-48 -47 -141 -47q-92 0 -140 47
q-28 28 -40 74t-12 113v40q0 67 12 113.5t40 74.5q25 24 61 35t79 11q45 0 80.5 -11t60.5 -35q28 -28 40 -74.5t12 -113.5v-40zM326 693q2 8 5.5 9.5t13.5 -1.5l28 -8q13 -4 9 -18q-15 -55 -54.5 -82.5t-90.5 -27.5t-90.5 27.5t-54.5 82.5q-4 14 9 18l28 8q10 3 13.5 1.5
t5.5 -9.5q12 -39 34.5 -56t54.5 -17t55 17.5t34 55.5z" />
    <glyph glyph-name="ohungarumlaut" unicode="&#x151;" horiz-adv-x="475" 
d="M111 236q0 -31 2.5 -61t7.5 -49q13 -45 42 -62t74 -17t74.5 17t42.5 62q5 19 7.5 49t2.5 61v19q0 31 -2.5 61t-7.5 49q-13 45 -42.5 61.5t-74.5 16.5t-74 -16.5t-42 -61.5q-5 -19 -7.5 -49t-2.5 -61v-19zM430 225q0 -67 -12 -113t-40 -74q-48 -47 -141 -47q-92 0 -140 47
q-28 28 -40 74t-12 113v40q0 67 12 113.5t40 74.5q25 24 61 35t79 11q45 0 80.5 -11t60.5 -35q28 -28 40 -74.5t12 -113.5v-40zM226 727q8 7 14 5.5t13 -9.5l21 -26q11 -15 -7 -27l-147 -99q-8 -5 -12.5 -4.5t-10.5 8.5l-14 18q-5 7 -3.5 12.5t6.5 10.5zM430 727q8 7 14 5.5
t13 -9.5l21 -26q11 -15 -7 -27l-147 -99q-8 -5 -12.5 -4.5t-10.5 8.5l-14 18q-5 7 -3.5 12.5t6.5 10.5z" />
    <glyph glyph-name="oslash" unicode="&#xf8;" horiz-adv-x="475" 
d="M430 225q0 -67 -12 -113t-40 -74q-48 -47 -141 -47q-53 0 -95 17l-26 -51q-7 -14 -20 -8l-17 7q-12 7 -5 21l29 55l-6 6q-28 28 -40 74t-12 113v40q0 67 12 113.5t40 74.5q25 24 61 35t79 11q56 0 98 -18l30 58q7 14 20 8l17 -8q12 -7 5 -20l-33 -63l4 -3
q28 -28 40 -74.5t12 -113.5v-40zM112 235q0 -31 2.5 -61t7.5 -49q2 -9 5.5 -16.5t7.5 -14.5l173 335q-14 8 -32 11.5t-39 3.5q-45 0 -73.5 -16.5t-41.5 -61.5q-5 -19 -7.5 -49t-2.5 -61v-21zM353 366q-2 8 -5 14.5t-6 12.5l-173 -333q27 -14 68 -14q45 0 74 17t42 62
q5 19 7.5 49t2.5 61v21q0 31 -2.5 61t-7.5 49z" />
    <glyph glyph-name="oslashacute" unicode="&#x1ff;" horiz-adv-x="475" 
d="M310 707q20 9 27 -7l17 -35q4 -9 0.5 -14t-13.5 -10l-171 -65q-11 -4 -16 -3t-9 9l-10 22q-6 14 5 20zM430 225q0 -67 -12 -113t-40 -74q-48 -47 -141 -47q-53 0 -95 17l-26 -51q-7 -14 -20 -8l-17 7q-12 7 -5 21l29 55l-6 6q-28 28 -40 74t-12 113v40q0 67 12 113.5
t40 74.5q25 24 61 35t79 11q56 0 98 -18l30 58q7 14 20 8l17 -8q12 -7 5 -20l-33 -63l4 -3q28 -28 40 -74.5t12 -113.5v-40zM112 235q0 -31 2.5 -61t7.5 -49q2 -9 5.5 -16.5t7.5 -14.5l173 335q-14 8 -32 11.5t-39 3.5q-45 0 -73.5 -16.5t-41.5 -61.5q-5 -19 -7.5 -49
t-2.5 -61v-21zM353 366q-2 8 -5 14.5t-6 12.5l-173 -333q27 -14 68 -14q45 0 74 17t42 62q5 19 7.5 49t2.5 61v21q0 31 -2.5 61t-7.5 49z" />
    <glyph glyph-name="oe" unicode="&#x153;" horiz-adv-x="772" 
d="M724 249q0 -22 -9 -31.5t-30 -9.5h-255q0 -2 -0.5 -4t-0.5 -4q2 -43 9.5 -72t23 -47t39.5 -26t59 -8q59 0 110 20q20 8 24 -7l7 -22q2 -8 0 -13.5t-22 -13.5q-51 -19 -119 -19q-64 0 -104.5 18t-62.5 56q-8 -15 -22 -29q-25 -24 -56.5 -35t-77.5 -11q-92 0 -140 47
q-28 28 -40 74t-12 113v40q0 67 12 113.5t40 74.5q25 24 61 35t79 11q45 0 78.5 -10.5t58.5 -34.5q5 -6 10 -13t10 -15q22 37 59.5 55t97.5 18q86 0 129 -41q23 -22 33.5 -52t10.5 -78v-79zM112 235q0 -31 2.5 -61t7.5 -49q13 -45 41.5 -62t73.5 -17t74 17t42 62
q5 19 7.5 49t2.5 61v21q0 40 -2.5 66.5t-7.5 43.5q-13 45 -42 61.5t-74 16.5t-73.5 -16.5t-41.5 -61.5q-5 -19 -7.5 -49t-2.5 -61v-21zM644 265q8 0 11 2t3 13v38q0 36 -5 57t-18 37q-26 32 -83 32q-30 0 -53 -7.5t-38.5 -25.5t-23 -49t-7.5 -77v-20h214z" />
    <glyph glyph-name="thorn" unicode="&#xfe;" horiz-adv-x="499" 
d="M262 444q-71 0 -101 -33t-30 -93v-148q0 -59 35 -91.5t98 -32.5q35 0 57.5 8.5t39.5 28.5q17 21 22 54t5 90v40q0 52 -6 86t-25 57q-14 17 -37 25.5t-58 8.5zM131 444h2q20 27 53.5 41t84.5 14q99 0 141 -54.5t42 -169.5v-52q0 -54 -9 -97t-30 -73t-56.5 -46t-88.5 -16
q-52 0 -83 12.5t-54 40.5h-2v-210q0 -11 -9 -11h-46q-10 0 -10 11v831q0 12 11 12h42q12 0 12 -12v-221z" />
    <glyph glyph-name="racute" unicode="&#x155;" horiz-adv-x="303" 
d="M85 0q-16 0 -16 13v466q0 11 12 11h29q7 0 9 -3t3 -8l4 -52h2q14 25 41.5 44t74.5 19h26q13 0 13 -12v-34q0 -11 -13 -11h-27q-38 0 -58.5 -10.5t-32.5 -30.5q-10 -16 -14 -36t-4 -43v-300q0 -13 -17 -13h-32zM269 707q20 9 27 -7l17 -35q4 -9 0.5 -14t-13.5 -10
l-171 -65q-11 -4 -16 -3t-9 9l-10 22q-6 14 5 20z" />
    <glyph glyph-name="rcaron" unicode="&#x159;" horiz-adv-x="303" 
d="M85 0q-16 0 -16 13v466q0 11 12 11h29q7 0 9 -3t3 -8l4 -52h2q14 25 41.5 44t74.5 19h26q13 0 13 -12v-34q0 -11 -13 -11h-27q-38 0 -58.5 -10.5t-32.5 -30.5q-10 -16 -14 -36t-4 -43v-300q0 -13 -17 -13h-32zM159 561q-5 0 -9 1.5t-9 6.5l-107 119q-11 12 1 20l23 16
q11 9 22 -2l92 -96h5l92 96q11 11 22 2l23 -16q12 -8 1 -20l-107 -119q-5 -5 -9 -6.5t-9 -1.5h-31z" />
    <glyph glyph-name="rcommaaccent" unicode="&#x157;" horiz-adv-x="303" 
d="M85 0q-16 0 -16 13v466q0 11 12 11h29q7 0 9 -3t3 -8l4 -52h2q14 25 41.5 44t74.5 19h26q13 0 13 -12v-34q0 -11 -13 -11h-27q-38 0 -58.5 -10.5t-32.5 -30.5q-10 -16 -14 -36t-4 -43v-300q0 -13 -17 -13h-32zM111 -69q17 0 26 -8.5t9 -29.5v-18q0 -69 -62 -130
q-9 -9 -17 -3l-14 12q-8 7 -2 14q8 10 19 24t17 27q8 15 -8 23q-12 6 -17.5 13.5t-5.5 24.5v18q0 17 9.5 25t24.5 8h21z" />
    <glyph glyph-name="sacute" unicode="&#x15b;" horiz-adv-x="401" 
d="M191 -9q-38 0 -75.5 7t-60.5 17q-14 6 -12 17l8 29q4 16 19 10q29 -11 59 -17.5t62 -6.5q36 0 54.5 5t30.5 15q25 20 25 64v6q0 26 -5.5 41.5t-21.5 25.5q-11 7 -28 11.5t-42 9.5l-28 5q-51 9 -78 25q-28 16 -39.5 42.5t-11.5 61.5v10q0 67 40.5 98.5t119.5 31.5
q62 0 112 -14q18 -5 15 -18l-6 -26q-2 -9 -7 -12.5t-16 -0.5q-22 6 -48.5 10.5t-50.5 4.5q-32 0 -50.5 -5.5t-28.5 -14.5q-8 -8 -14 -21.5t-6 -30.5v-7q0 -16 3.5 -28t12.5 -21q10 -10 26.5 -16.5t51.5 -13.5l26 -5q37 -8 65.5 -18.5t43.5 -29.5q11 -15 18 -37t7 -51v-10
q0 -26 -7 -51t-21 -42q-40 -50 -142 -50zM293 707q20 9 27 -7l17 -35q4 -9 0.5 -14t-13.5 -10l-171 -65q-11 -4 -16 -3t-9 9l-10 22q-6 14 5 20z" />
    <glyph glyph-name="scircumflex" unicode="&#x15d;" horiz-adv-x="401" 
d="M191 -9q-38 0 -75.5 7t-60.5 17q-14 6 -12 17l8 29q4 16 19 10q29 -11 59 -17.5t62 -6.5q36 0 54.5 5t30.5 15q25 20 25 64v6q0 26 -5.5 41.5t-21.5 25.5q-11 7 -28 11.5t-42 9.5l-28 5q-51 9 -78 25q-28 16 -39.5 42.5t-11.5 61.5v10q0 67 40.5 98.5t119.5 31.5
q62 0 112 -14q18 -5 15 -18l-6 -26q-2 -9 -7 -12.5t-16 -0.5q-22 6 -48.5 10.5t-50.5 4.5q-32 0 -50.5 -5.5t-28.5 -14.5q-8 -8 -14 -21.5t-6 -30.5v-7q0 -16 3.5 -28t12.5 -21q10 -10 26.5 -16.5t51.5 -13.5l26 -5q37 -8 65.5 -18.5t43.5 -29.5q11 -15 18 -37t7 -51v-10
q0 -26 -7 -51t-21 -42q-40 -50 -142 -50zM224 728q7 0 10 -1.5t8 -6.5l105 -119q11 -12 -1 -20l-23 -16q-11 -9 -22 2l-92 96h-5l-92 -96q-11 -11 -22 -2l-23 16q-13 8 -1 20l105 119q5 5 8 6.5t10 1.5h35z" />
    <glyph glyph-name="scaron" unicode="&#x161;" horiz-adv-x="401" 
d="M191 -9q-38 0 -75.5 7t-60.5 17q-14 6 -12 17l8 29q4 16 19 10q29 -11 59 -17.5t62 -6.5q36 0 54.5 5t30.5 15q25 20 25 64v6q0 26 -5.5 41.5t-21.5 25.5q-11 7 -28 11.5t-42 9.5l-28 5q-51 9 -78 25q-28 16 -39.5 42.5t-11.5 61.5v10q0 67 40.5 98.5t119.5 31.5
q62 0 112 -14q18 -5 15 -18l-6 -26q-2 -9 -7 -12.5t-16 -0.5q-22 6 -48.5 10.5t-50.5 4.5q-32 0 -50.5 -5.5t-28.5 -14.5q-8 -8 -14 -21.5t-6 -30.5v-7q0 -16 3.5 -28t12.5 -21q10 -10 26.5 -16.5t51.5 -13.5l26 -5q37 -8 65.5 -18.5t43.5 -29.5q11 -15 18 -37t7 -51v-10
q0 -26 -7 -51t-21 -42q-40 -50 -142 -50zM188 561q-5 0 -9 1.5t-9 6.5l-107 119q-11 12 1 20l23 16q11 9 22 -2l92 -96h5l92 96q11 11 22 2l23 -16q12 -8 1 -20l-107 -119q-5 -5 -9 -6.5t-9 -1.5h-31z" />
    <glyph glyph-name="scedilla" unicode="&#x15f;" horiz-adv-x="401" 
d="M333 41q-19 -23 -49 -35t-73 -14l-7 -49q8 2 16 2h17q29 0 49.5 -18t20.5 -58q0 -48 -28.5 -70.5t-88.5 -22.5q-14 0 -32 2.5t-34 7.5q-8 3 -7 11l4 30q3 11 12 8q13 -4 27.5 -6.5t27.5 -2.5q30 0 44.5 7.5t14.5 33.5q0 16 -7 23.5t-27 7.5q-9 0 -19 -1t-19 -3
q-10 -3 -15 4l-8 13q-3 6 -2 15l10 66q-31 2 -58.5 8.5t-46.5 14.5q-14 6 -12 17l8 29q4 16 19 10q29 -11 59 -17.5t62 -6.5q36 0 54.5 5t30.5 15q25 20 25 64v6q0 26 -5.5 41.5t-21.5 25.5q-11 7 -28 11.5t-42 9.5l-28 5q-51 9 -78 25q-28 16 -39.5 42.5t-11.5 61.5v10
q0 67 40.5 98.5t119.5 31.5q62 0 112 -14q18 -5 15 -18l-6 -26q-2 -9 -7 -12.5t-16 -0.5q-22 6 -48.5 10.5t-50.5 4.5q-32 0 -50.5 -5.5t-28.5 -14.5q-8 -8 -14 -21.5t-6 -30.5v-7q0 -16 3.5 -28t12.5 -21q10 -10 26.5 -16.5t51.5 -13.5l26 -5q37 -8 65.5 -18.5t43.5 -29.5
q11 -15 18 -37t7 -51v-10q0 -26 -7 -51t-21 -42z" />
    <glyph glyph-name="scommaaccent" unicode="&#x219;" horiz-adv-x="401" 
d="M191 -9q-38 0 -75.5 7t-60.5 17q-14 6 -12 17l8 29q4 16 19 10q29 -11 59 -17.5t62 -6.5q36 0 54.5 5t30.5 15q25 20 25 64v6q0 26 -5.5 41.5t-21.5 25.5q-11 7 -28 11.5t-42 9.5l-28 5q-51 9 -78 25q-28 16 -39.5 42.5t-11.5 61.5v10q0 67 40.5 98.5t119.5 31.5
q62 0 112 -14q18 -5 15 -18l-6 -26q-2 -9 -7 -12.5t-16 -0.5q-22 6 -48.5 10.5t-50.5 4.5q-32 0 -50.5 -5.5t-28.5 -14.5q-8 -8 -14 -21.5t-6 -30.5v-7q0 -16 3.5 -28t12.5 -21q10 -10 26.5 -16.5t51.5 -13.5l26 -5q37 -8 65.5 -18.5t43.5 -29.5q11 -15 18 -37t7 -51v-10
q0 -26 -7 -51t-21 -42q-40 -50 -142 -50zM218 -69q17 0 26 -8.5t9 -29.5v-18q0 -69 -62 -130q-9 -9 -17 -3l-14 12q-8 7 -2 14q8 10 19 24t17 27q8 15 -8 23q-12 6 -17.5 13.5t-5.5 24.5v18q0 17 9.5 25t24.5 8h21z" />
    <glyph glyph-name="germandbls" unicode="&#xdf;" horiz-adv-x="503" 
d="M250 630q-36 0 -57.5 -7.5t-33.5 -19.5q-16 -16 -22.5 -40.5t-6.5 -72.5l1 -537q0 -17 -14 -17h-35q-16 0 -16 17v558q0 50 11 82t35 53q23 20 56.5 30t84.5 10q77 0 122 -38q23 -19 37 -49t14 -71v-13q0 -53 -24.5 -94t-66.5 -55v-3q67 -13 97 -54q15 -20 22 -49t7 -61
v-14q0 -103 -47 -150q-23 -23 -57.5 -33.5t-79.5 -10.5q-27 0 -49 2t-44 7q-18 4 -15 16l6 31q3 12 16 9q17 -4 38 -6.5t41 -2.5q66 0 94 28q17 17 24 45.5t7 67.5v8q0 68 -32 99q-18 17 -44.5 25t-68.5 8h-33q-13 0 -13 12v31q0 14 13 14h12q34 0 56.5 6.5t39.5 21.5
q19 17 27 44.5t8 53.5v9q0 24 -7 46t-21 36q-29 28 -82 28z" />
    <glyph glyph-name="tcaron" unicode="&#x165;" horiz-adv-x="316" 
d="M299 691q17 0 26 -8.5t9 -29.5v-22q0 -62 -49 -114q-9 -9 -17 -3l-14 12q-8 7 -2 14q6 8 11.5 16t11.5 19q8 15 -8 23q-12 6 -17.5 13.5t-5.5 24.5v22q0 17 9.5 25t24.5 8h21zM231 0q-78 0 -112 40q-33 39 -33 115v278h-61q-10 0 -10 11v20q0 12 10 13l61 13v113
q0 12 12 12h42q11 0 11 -12v-113h117q10 0 10 -10v-37q0 -10 -10 -10h-117v-270q0 -27 3.5 -47.5t14.5 -34.5q19 -25 73 -25h36q5 0 8.5 -1.5t3.5 -9.5v-34q0 -11 -12 -11h-47z" />
    <glyph glyph-name="tcommaaccent" unicode="&#x163;" horiz-adv-x="316" 
d="M231 0q-78 0 -112 40q-33 39 -33 115v278h-61q-10 0 -10 11v20q0 12 10 13l61 13v113q0 12 12 12h42q11 0 11 -12v-113h117q10 0 10 -10v-37q0 -10 -10 -10h-117v-270q0 -27 3.5 -47.5t14.5 -34.5q19 -25 73 -25h36q5 0 8.5 -1.5t3.5 -9.5v-34q0 -11 -12 -11h-47z
M208 -69q17 0 26 -8.5t9 -29.5v-18q0 -69 -62 -130q-9 -9 -17 -3l-14 12q-8 7 -2 14q8 10 19 24t17 27q8 15 -8 23q-12 6 -17.5 13.5t-5.5 24.5v18q0 17 9.5 25t24.5 8h21z" />
    <glyph glyph-name="uni021B" unicode="&#x21b;" horiz-adv-x="316" 
d="M231 0q-78 0 -112 40q-33 39 -33 115v278h-61q-10 0 -10 11v20q0 12 10 13l61 13v113q0 12 12 12h42q11 0 11 -12v-113h117q10 0 10 -10v-37q0 -10 -10 -10h-117v-270q0 -27 3.5 -47.5t14.5 -34.5q19 -25 73 -25h36q5 0 8.5 -1.5t3.5 -9.5v-34q0 -11 -12 -11h-47z
M200 -69q17 0 26 -8.5t9 -29.5v-18q0 -69 -62 -130q-9 -9 -17 -3l-14 12q-8 7 -2 14q8 10 19 24t17 27q8 15 -8 23q-12 6 -17.5 13.5t-5.5 24.5v18q0 17 9.5 25t24.5 8h21z" />
    <glyph glyph-name="tbar" unicode="&#x167;" horiz-adv-x="316" 
d="M231 0q-78 0 -112 40q-33 39 -33 115v104h-61q-10 0 -10 11v20q0 12 10 13l61 13v117h-61q-10 0 -10 11v20q0 12 10 13l61 13v113q0 12 12 12h42q11 0 11 -12v-113h117q10 0 10 -10v-37q0 -10 -10 -10h-117v-117h117q10 0 10 -10v-37q0 -10 -10 -10h-117v-95
q0 -27 3.5 -47.5t14.5 -34.5q19 -25 73 -25h36q5 0 8.5 -1.5t3.5 -9.5v-35q0 -11 -12 -11h-47z" />
    <glyph glyph-name="ugrave" unicode="&#xf9;" horiz-adv-x="489" 
d="M414 490q11 0 11 -13v-336q0 -76 -44 -114q-22 -19 -53 -27.5t-83 -8.5q-50 0 -82 9t-54 27q-45 38 -45 114v333q0 16 14 16h37q8 0 11 -4.5t3 -9.5v-327q0 -30 6 -47.5t20 -30.5q15 -14 36.5 -19t53.5 -5q34 0 55 6.5t37 21.5q13 12 18 28t5 46v328q0 13 12 13h42z
M333 624q11 -6 5 -20l-10 -22q-4 -8 -9 -9t-16 3l-171 65q-10 5 -13.5 10t0.5 14l17 35q7 16 27 7z" />
    <glyph glyph-name="uacute" unicode="&#xfa;" horiz-adv-x="489" 
d="M414 490q11 0 11 -13v-336q0 -76 -44 -114q-22 -19 -53 -27.5t-83 -8.5q-50 0 -82 9t-54 27q-45 38 -45 114v333q0 16 14 16h37q8 0 11 -4.5t3 -9.5v-327q0 -30 6 -47.5t20 -30.5q15 -14 36.5 -19t53.5 -5q34 0 55 6.5t37 21.5q13 12 18 28t5 46v328q0 13 12 13h42z
M339 707q20 9 27 -7l17 -35q4 -9 0.5 -14t-13.5 -10l-171 -65q-11 -4 -16 -3t-9 9l-10 22q-6 14 5 20z" />
    <glyph glyph-name="ucircumflex" unicode="&#xfb;" horiz-adv-x="489" 
d="M414 490q11 0 11 -13v-336q0 -76 -44 -114q-22 -19 -53 -27.5t-83 -8.5q-50 0 -82 9t-54 27q-45 38 -45 114v333q0 16 14 16h37q8 0 11 -4.5t3 -9.5v-327q0 -30 6 -47.5t20 -30.5q15 -14 36.5 -19t53.5 -5q34 0 55 6.5t37 21.5q13 12 18 28t5 46v328q0 13 12 13h42z
M262 728q7 0 10 -1.5t8 -6.5l105 -119q11 -12 -1 -20l-23 -16q-11 -9 -22 2l-92 96h-5l-92 -96q-11 -11 -22 -2l-23 16q-13 8 -1 20l105 119q5 5 8 6.5t10 1.5h35z" />
    <glyph glyph-name="utilde" unicode="&#x169;" horiz-adv-x="489" 
d="M414 490q11 0 11 -13v-336q0 -76 -44 -114q-22 -19 -53 -27.5t-83 -8.5q-50 0 -82 9t-54 27q-45 38 -45 114v333q0 16 14 16h37q8 0 11 -4.5t3 -9.5v-327q0 -30 6 -47.5t20 -30.5q15 -14 36.5 -19t53.5 -5q34 0 55 6.5t37 21.5q13 12 18 28t5 46v328q0 13 12 13h42z
M88 602q-7 4 -3 13q20 40 46.5 60.5t55.5 20.5q17 0 31 -5t28 -15l28 -20q12 -9 19.5 -12.5t16.5 -3.5q23 0 53 45q6 10 15 4l26 -16q10 -6 5 -15q-20 -36 -47 -57.5t-56 -21.5q-32 0 -58 19l-28 20q-11 8 -18.5 12t-18.5 4q-14 0 -26.5 -10.5t-26.5 -34.5q-4 -7 -7.5 -7
t-9.5 4z" />
    <glyph glyph-name="udieresis" unicode="&#xfc;" horiz-adv-x="489" 
d="M414 490q11 0 11 -13v-336q0 -76 -44 -114q-22 -19 -53 -27.5t-83 -8.5q-50 0 -82 9t-54 27q-45 38 -45 114v333q0 16 14 16h37q8 0 11 -4.5t3 -9.5v-327q0 -30 6 -47.5t20 -30.5q15 -14 36.5 -19t53.5 -5q34 0 55 6.5t37 21.5q13 12 18 28t5 46v328q0 13 12 13h42z
M169 691q20 0 32 -10t12 -29v-23q0 -20 -12 -29.5t-32 -9.5h-10q-19 0 -30.5 9.5t-11.5 29.5v23q0 19 11.5 29t30.5 10h10zM331 691q43 0 43 -39v-23q0 -39 -43 -39h-10q-19 0 -30.5 9.5t-11.5 29.5v23q0 19 11.5 29t30.5 10h10z" />
    <glyph glyph-name="umacron" unicode="&#x16b;" horiz-adv-x="489" 
d="M414 490q11 0 11 -13v-336q0 -76 -44 -114q-22 -19 -53 -27.5t-83 -8.5q-50 0 -82 9t-54 27q-45 38 -45 114v333q0 16 14 16h37q8 0 11 -4.5t3 -9.5v-327q0 -30 6 -47.5t20 -30.5q15 -14 36.5 -19t53.5 -5q34 0 55 6.5t37 21.5q13 12 18 28t5 46v328q0 13 12 13h42z
M358 669q9 0 12 -4t3 -11v-35q0 -10 -5 -11.5t-10 -1.5h-225q-9 0 -12 3.5t-3 11.5v33q0 7 3 11t12 4h225z" />
    <glyph glyph-name="ubreve" unicode="&#x16d;" horiz-adv-x="489" 
d="M414 490q11 0 11 -13v-336q0 -76 -44 -114q-22 -19 -53 -27.5t-83 -8.5q-50 0 -82 9t-54 27q-45 38 -45 114v333q0 16 14 16h37q8 0 11 -4.5t3 -9.5v-327q0 -30 6 -47.5t20 -30.5q15 -14 36.5 -19t53.5 -5q34 0 55 6.5t37 21.5q13 12 18 28t5 46v328q0 13 12 13h42z
M333 693q2 8 5.5 9.5t13.5 -1.5l28 -8q13 -4 9 -18q-15 -55 -54.5 -82.5t-90.5 -27.5t-90.5 27.5t-54.5 82.5q-4 14 9 18l28 8q10 3 13.5 1.5t5.5 -9.5q12 -39 34.5 -56t54.5 -17t55 17.5t34 55.5z" />
    <glyph glyph-name="uring" unicode="&#x16f;" horiz-adv-x="489" 
d="M414 490q11 0 11 -13v-336q0 -76 -44 -114q-22 -19 -53 -27.5t-83 -8.5q-50 0 -82 9t-54 27q-45 38 -45 114v333q0 16 14 16h37q8 0 11 -4.5t3 -9.5v-327q0 -30 6 -47.5t20 -30.5q15 -14 36.5 -19t53.5 -5q34 0 55 6.5t37 21.5q13 12 18 28t5 46v328q0 13 12 13h42z
M154 637q0 43 26.5 67t64.5 24t64.5 -24t26.5 -67t-26.5 -67t-64.5 -24t-64.5 24t-26.5 67zM201 637q0 -21 12.5 -32.5t31.5 -11.5t31.5 11.5t12.5 32.5t-12.5 32.5t-31.5 11.5t-31.5 -11.5t-12.5 -32.5z" />
    <glyph glyph-name="uhungarumlaut" unicode="&#x171;" horiz-adv-x="489" 
d="M414 490q11 0 11 -13v-336q0 -76 -44 -114q-22 -19 -53 -27.5t-83 -8.5q-50 0 -82 9t-54 27q-45 38 -45 114v333q0 16 14 16h37q8 0 11 -4.5t3 -9.5v-327q0 -30 6 -47.5t20 -30.5q15 -14 36.5 -19t53.5 -5q34 0 55 6.5t37 21.5q13 12 18 28t5 46v328q0 13 12 13h42z
M250 727q8 7 14 5.5t13 -9.5l21 -26q11 -15 -7 -27l-147 -99q-8 -5 -12.5 -4.5t-10.5 8.5l-14 18q-5 7 -3.5 12.5t6.5 10.5zM454 727q8 7 14 5.5t13 -9.5l21 -26q11 -15 -7 -27l-147 -99q-8 -5 -12.5 -4.5t-10.5 8.5l-14 18q-5 7 -3.5 12.5t6.5 10.5z" />
    <glyph glyph-name="uogonek" unicode="&#x173;" horiz-adv-x="489" 
d="M414 490q11 0 11 -13v-336q0 -76 -44 -114q-10 -8 -21 -14t-21 -11q-41 -20 -59.5 -51.5t-18.5 -58.5q0 -36 43 -36q11 0 24.5 3t23.5 8q11 5 14 -5l6 -28q3 -10 -8 -15q-16 -7 -35 -11t-39 -4q-45 0 -70.5 18.5t-25.5 56.5q0 36 19 65.5t48 46.5h-16q-50 0 -82 9t-54 27
q-45 38 -45 114v333q0 16 14 16h37q8 0 11 -4.5t3 -9.5v-327q0 -30 6 -47.5t20 -30.5q15 -14 36.5 -19t53.5 -5q34 0 55 6.5t37 21.5q13 12 18 28t5 46v328q0 13 12 13h42z" />
    <glyph glyph-name="wgrave" unicode="&#x1e81;" horiz-adv-x="667" 
d="M356 466q28 0 34 -28q21 -103 43 -198t48 -189h5q29 110 52 217t41 210q2 10 5.5 11t12.5 1h31q11 0 15.5 -2.5t2.5 -11.5q-22 -114 -48.5 -222.5t-53.5 -212.5q-5 -20 -14 -30.5t-28 -10.5h-34q-18 0 -28.5 8.5t-16.5 32.5q-25 94 -46 184t-40 181h-7q-19 -91 -40 -181
t-46 -184q-6 -24 -16.5 -32.5t-28.5 -8.5h-34q-19 0 -28 10.5t-14 30.5q-27 104 -53.5 212.5t-48.5 222.5q-2 9 2.5 11.5t15.5 2.5h31q9 0 12.5 -2t5.5 -10q18 -103 41 -210t52 -217h5q26 94 48 189t43 198q6 28 34 28h45zM430 624q11 -6 5 -20l-10 -22q-4 -8 -9 -9t-16 3
l-171 65q-10 5 -13.5 10t0.5 14l17 35q7 16 27 7z" />
    <glyph glyph-name="wacute" unicode="&#x1e83;" horiz-adv-x="667" 
d="M356 466q28 0 34 -28q21 -103 43 -198t48 -189h5q29 110 52 217t41 210q2 10 5.5 11t12.5 1h31q11 0 15.5 -2.5t2.5 -11.5q-22 -114 -48.5 -222.5t-53.5 -212.5q-5 -20 -14 -30.5t-28 -10.5h-34q-18 0 -28.5 8.5t-16.5 32.5q-25 94 -46 184t-40 181h-7q-19 -91 -40 -181
t-46 -184q-6 -24 -16.5 -32.5t-28.5 -8.5h-34q-19 0 -28 10.5t-14 30.5q-27 104 -53.5 212.5t-48.5 222.5q-2 9 2.5 11.5t15.5 2.5h31q9 0 12.5 -2t5.5 -10q18 -103 41 -210t52 -217h5q26 94 48 189t43 198q6 28 34 28h45zM410 707q20 9 27 -7l17 -35q4 -9 0.5 -14
t-13.5 -10l-171 -65q-11 -4 -16 -3t-9 9l-10 22q-6 14 5 20z" />
    <glyph glyph-name="wcircumflex" unicode="&#x175;" horiz-adv-x="667" 
d="M356 466q28 0 34 -28q21 -103 43 -198t48 -189h5q29 110 52 217t41 210q2 10 5.5 11t12.5 1h31q11 0 15.5 -2.5t2.5 -11.5q-22 -114 -48.5 -222.5t-53.5 -212.5q-5 -20 -14 -30.5t-28 -10.5h-34q-18 0 -28.5 8.5t-16.5 32.5q-25 94 -46 184t-40 181h-7q-19 -91 -40 -181
t-46 -184q-6 -24 -16.5 -32.5t-28.5 -8.5h-34q-19 0 -28 10.5t-14 30.5q-27 104 -53.5 212.5t-48.5 222.5q-2 9 2.5 11.5t15.5 2.5h31q9 0 12.5 -2t5.5 -10q18 -103 41 -210t52 -217h5q26 94 48 189t43 198q6 28 34 28h45zM351 728q7 0 10 -1.5t8 -6.5l105 -119
q11 -12 -1 -20l-23 -16q-11 -9 -22 2l-92 96h-5l-92 -96q-11 -11 -22 -2l-23 16q-13 8 -1 20l105 119q5 5 8 6.5t10 1.5h35z" />
    <glyph glyph-name="wdieresis" unicode="&#x1e85;" horiz-adv-x="667" 
d="M356 466q28 0 34 -28q21 -103 43 -198t48 -189h5q29 110 52 217t41 210q2 10 5.5 11t12.5 1h31q11 0 15.5 -2.5t2.5 -11.5q-22 -114 -48.5 -222.5t-53.5 -212.5q-5 -20 -14 -30.5t-28 -10.5h-34q-18 0 -28.5 8.5t-16.5 32.5q-25 94 -46 184t-40 181h-7q-19 -91 -40 -181
t-46 -184q-6 -24 -16.5 -32.5t-28.5 -8.5h-34q-19 0 -28 10.5t-14 30.5q-27 104 -53.5 212.5t-48.5 222.5q-2 9 2.5 11.5t15.5 2.5h31q9 0 12.5 -2t5.5 -10q18 -103 41 -210t52 -217h5q26 94 48 189t43 198q6 28 34 28h45zM257 691q20 0 32 -10t12 -29v-23q0 -20 -12 -29.5
t-32 -9.5h-10q-19 0 -30.5 9.5t-11.5 29.5v23q0 19 11.5 29t30.5 10h10zM419 691q43 0 43 -39v-23q0 -39 -43 -39h-10q-19 0 -30.5 9.5t-11.5 29.5v23q0 19 11.5 29t30.5 10h10z" />
    <glyph glyph-name="ygrave" unicode="&#x1ef3;" horiz-adv-x="428" 
d="M132 -153q41 80 73 160q-25 1 -40 15.5t-27 47.5q-15 42 -28.5 83t-27.5 89q-14 51 -29.5 108.5t-31.5 126.5q-3 13 11 13h45q9 0 11 -9q14 -66 27 -120t26 -102q12 -46 24 -84t26 -78q6 -18 13 -25t19 -7h4q38 103 62.5 205t46.5 212q2 8 11 8h46q12 0 10 -9
q-25 -119 -50 -212t-51.5 -170t-53.5 -144t-57 -133q-6 -13 -21 -7l-33 12q-13 5 -5 20zM311 624q11 -6 5 -20l-10 -22q-4 -8 -9 -9t-16 3l-171 65q-10 5 -13.5 10t0.5 14l17 35q7 16 27 7z" />
    <glyph glyph-name="yacute" unicode="&#xfd;" horiz-adv-x="428" 
d="M132 -153q41 80 73 160q-25 1 -40 15.5t-27 47.5q-15 42 -28.5 83t-27.5 89q-14 51 -29.5 108.5t-31.5 126.5q-3 13 11 13h45q9 0 11 -9q14 -66 27 -120t26 -102q12 -46 24 -84t26 -78q6 -18 13 -25t19 -7h4q38 103 62.5 205t46.5 212q2 8 11 8h46q12 0 10 -9
q-25 -119 -50 -212t-51.5 -170t-53.5 -144t-57 -133q-6 -13 -21 -7l-33 12q-13 5 -5 20zM313 707q20 9 27 -7l17 -35q4 -9 0.5 -14t-13.5 -10l-171 -65q-11 -4 -16 -3t-9 9l-10 22q-6 14 5 20z" />
    <glyph glyph-name="ycircumflex" unicode="&#x177;" horiz-adv-x="428" 
d="M132 -153q41 80 73 160q-25 1 -40 15.5t-27 47.5q-15 42 -28.5 83t-27.5 89q-14 51 -29.5 108.5t-31.5 126.5q-3 13 11 13h45q9 0 11 -9q14 -66 27 -120t26 -102q12 -46 24 -84t26 -78q6 -18 13 -25t19 -7h4q38 103 62.5 205t46.5 212q2 8 11 8h46q12 0 10 -9
q-25 -119 -50 -212t-51.5 -170t-53.5 -144t-57 -133q-6 -13 -21 -7l-33 12q-13 5 -5 20zM236 728q7 0 10 -1.5t8 -6.5l105 -119q11 -12 -1 -20l-23 -16q-11 -9 -22 2l-92 96h-5l-92 -96q-11 -11 -22 -2l-23 16q-13 8 -1 20l105 119q5 5 8 6.5t10 1.5h35z" />
    <glyph glyph-name="ydieresis" unicode="&#xff;" horiz-adv-x="428" 
d="M132 -153q41 80 73 160q-25 1 -40 15.5t-27 47.5q-15 42 -28.5 83t-27.5 89q-14 51 -29.5 108.5t-31.5 126.5q-3 13 11 13h45q9 0 11 -9q14 -66 27 -120t26 -102q12 -46 24 -84t26 -78q6 -18 13 -25t19 -7h4q38 103 62.5 205t46.5 212q2 8 11 8h46q12 0 10 -9
q-25 -119 -50 -212t-51.5 -170t-53.5 -144t-57 -133q-6 -13 -21 -7l-33 12q-13 5 -5 20zM141 691q20 0 32 -10t12 -29v-23q0 -20 -12 -29.5t-32 -9.5h-10q-19 0 -30.5 9.5t-11.5 29.5v23q0 19 11.5 29t30.5 10h10zM303 691q43 0 43 -39v-23q0 -39 -43 -39h-10
q-19 0 -30.5 9.5t-11.5 29.5v23q0 19 11.5 29t30.5 10h10z" />
    <glyph glyph-name="zacute" unicode="&#x17a;" horiz-adv-x="395" 
d="M365 10q0 -10 -10 -10h-312q-10 0 -10 10v17q0 10 4 19t14 25l220 363h-221q-10 0 -10 10v36q0 10 10 10h296q10 0 10 -10v-14q0 -11 -4.5 -22t-21.5 -38l-215 -350h240q10 0 10 -10v-36zM289 707q20 9 27 -7l17 -35q4 -9 0.5 -14t-13.5 -10l-171 -65q-11 -4 -16 -3t-9 9
l-10 22q-6 14 5 20z" />
    <glyph glyph-name="zcaron" unicode="&#x17e;" horiz-adv-x="395" 
d="M365 10q0 -10 -10 -10h-312q-10 0 -10 10v17q0 10 4 19t14 25l220 363h-221q-10 0 -10 10v36q0 10 10 10h296q10 0 10 -10v-14q0 -11 -4.5 -22t-21.5 -38l-215 -350h240q10 0 10 -10v-36zM191 561q-5 0 -9 1.5t-9 6.5l-107 119q-11 12 1 20l23 16q11 9 22 -2l92 -96h5
l92 96q11 11 22 2l23 -16q12 -8 1 -20l-107 -119q-5 -5 -9 -6.5t-9 -1.5h-31z" />
    <glyph glyph-name="zdotaccent" unicode="&#x17c;" horiz-adv-x="395" 
d="M365 10q0 -10 -10 -10h-312q-10 0 -10 10v17q0 10 4 19t14 25l220 363h-221q-10 0 -10 10v36q0 10 10 10h296q10 0 10 -10v-14q0 -11 -4.5 -22t-21.5 -38l-215 -350h240q10 0 10 -10v-36zM144 637q0 25 17.5 42.5t42.5 17.5t42.5 -17.5t17.5 -42.5t-17.5 -42.5
t-42.5 -17.5t-42.5 17.5t-17.5 42.5z" />
    <glyph glyph-name="apple" unicode="&#xf8ff;" horiz-adv-x="575" 
d="M228 199v64h193v63h-193v192h255v-64h-191v-64h191v-191h-255zM164 583v-519h72v-64h-136v647h383v-64h-319z" />
    <glyph glyph-name="arrowleft" unicode="&#x2190;" horiz-adv-x="596" 
d="M266 118q13 -13 3 -23l-24 -24q-5 -5 -10 -6t-12 6l-175 175q-8 8 -8 14q0 7 8 15l175 175q7 7 12 6t10 -6l24 -24q5 -5 5 -10t-8 -13l-112 -112h392q9 0 12 -4t3 -11v-31q0 -8 -3 -11.5t-12 -3.5h-392z" />
    <glyph glyph-name="arrowright" unicode="&#x2192;" horiz-adv-x="596" 
d="M442 230h-392q-9 0 -12 3.5t-3 11.5v31q0 7 3 11t12 4h392l-112 112q-8 8 -8 13t5 10l24 24q5 5 10 6t12 -6l175 -175q8 -8 8 -15q0 -6 -8 -14l-175 -175q-7 -7 -12 -6t-10 6l-24 24q-10 10 3 23z" />
    <glyph glyph-name="arrowup" unicode="&#x2191;" horiz-adv-x="596" 
d="M155 295q-13 -13 -23 -3l-24 24q-5 5 -6 10t6 12l175 175q8 8 14 8q7 0 15 -8l175 -175q7 -7 6 -12t-6 -10l-24 -24q-5 -5 -10 -5t-13 8l-112 112v-392q0 -9 -4 -12t-11 -3h-31q-8 0 -11.5 3t-3.5 12v392z" />
    <glyph glyph-name="arrowdown" unicode="&#x2193;" horiz-adv-x="596" 
d="M267 114v392q0 9 3.5 12t11.5 3h31q7 0 11 -3t4 -12v-392l112 112q8 8 13 8t10 -5l24 -24q5 -5 6 -10t-6 -12l-175 -175q-8 -8 -15 -8q-6 0 -14 8l-175 175q-7 7 -6 12t6 10l24 24q10 10 23 -3z" />
    <glyph glyph-name="idotaccent" horiz-adv-x="221" 
d="M128 647q17 0 17 -17v-613q0 -17 -17 -17h-35q-17 0 -17 17v613q0 17 16 17h36zM50 770q0 25 17.5 42.5t42.5 17.5t42.5 -17.5t17.5 -42.5t-17.5 -42.5t-42.5 -17.5t-42.5 17.5t-17.5 42.5z" />
	g2="o,eth,ograve,oacute,ocircumflex,otilde,odieresis,omacron,obreve,ohungarumlaut,oslash,oslashacute,oe"
	k="10" />
  </font>
</defs>
</svg>
